Login
Username:
Password:
[Signup]
[Recover Account]


Browse Torrents

Poll


You must be logged in to view polls



Latest Torrents
Kismat Konnection ...
- [Size: 1.63 GB]

Batti Gul Meter Ch...
- [Size: 1.24 GB]

18+ DAD FRIEND (20...
- [Size: 579.60 MB]

Rita Ora - Phoenix...
- [Size: 129.09 MB]

Batti Gul Meter Ch...
- [Size: 1.54 GB]


Torrent Details For "Mubarakan (2017) - DvDScr Rip - [Mp4 - AAC3(2Ch)] - 850 MB"

Mubarakan (2017) - DvDScr Rip - [Mp4 - AAC3(2Ch)] - 850 MB

Download this torrent | Magnet Download
Health:
Seeds: 0
Leechers: 26
Completed: 209 
Last Checked: 15-09-2017 04:30:20
External Torrent
Update Stats



Images Host

Poster


iMDB
Imdb Picture Title: Mubarakan
Year: 2017
Runtime: 156 minutes
Votes: 69
Rating: 5.0/10
Language: Hindi
Country: India
All Genres: Comedy, Family, Romance
Plot Outline: Karan and Charan are identical twin brothers but their personalities are polar opposites. Karan has grown up in London while Charan was raised in Punjab. Karan is street-smart, calculating ...
Director: Anees Bazmee
Writing By: Rupinder Chahal,Rajesh Chawla,Balwinder Singh Janjua,Balwinder Singh Janjua,
Produced By: Balwinder Singh Janjua,Firuzi Khan,Murad Khetani,Niraj Kothari,Navmeet Singh,Ashwin Varde,
Plot:

Karan and Charan are identical twin brothers but their personalities are polar opposites. Karan has grown up in London while Charan was raised in Punjab. Karan is street-smart, calculating and flamboyant while Charan is simple, idealistic and honest in his approach. Karan is in love with Sweety while Charan is in a relationship with Nafisa. Karan's family fixes Karan's wedding with Binkle, daughter of one of the wealthiest families in London. He convinces his family to fix the match with Charan instead. The respective families are happy with this development except Charan because he wants to marry Nafisa.

- Written by Anonymous
Cast:
Anil Kapoor as Kartar Singh
Arjun Kapoor as Charanveer Singh / Karanveer Singh
Ileana D'Cruz as Sweety
Athiya Shetty as Anjali
Neha Sharma as Nafisa Ali Khan
Vineet Kumar Singh as
Pavan Malhotra as
Ratna Pathak as
Karan Kundra as
Anil Mange as
Trailers:
Official 'Mubarakan' Trailer


Watch-Free-HD     Download

Details
Name:Mubarakan (2017) - DvDScr Rip - [Mp4 - AAC3(2Ch)] - 850 MB
Description:
Mubarakan (2017) - DvDScr Rip -
[Mp4 - AAC3(2Ch)] - 850 MB
 



General
Complete name                            :
Format                                   : MPEG-4
Format profile                           : Base Media
Codec ID                                 : isom (isom)
File size                                : 850 MiB
Duration                                 : 2 h 55 min

Video
ID                                       : 1
Format                                   : AVC
Format/Info                              : Advanced Video Codec
Format profile                           : [email protected]
Format settings, CABAC                   : Yes
Format settings, RefFrames               : 4 frames
Codec ID                                 : avc1
Codec ID/Info                            : Advanced Video Coding
Duration                                 : 2 h 55 min
Bit rate                                 : 546 kb/s
Maximum bit rate                         : 2 100 kb/s
Width                                    : 640 pixels
Height                                   : 344 pixels
Display aspect ratio                     : 1.85:1
Frame rate mode                          : Constant
Frame rate                               : 25.000 FPS
Color space                              : YUV
Chroma subsampling                       : 4:2:0
Bit depth                                : 8 bits
Scan type                                : Progressive
Bits/(Pixel*Frame)                       : 0.099
Stream size                              : 684 MiB (81%)

Audio
ID                                       : 2
Format                                   : AAC
Format/Info                              : Advanced Audio Codec
Format profile                           : LC
Codec ID                                 : 40
Duration                                 : 2 h 55 min
Bit rate mode                            : Variable
Bit rate                                 : 128 kb/s
Maximum bit rate                         : 133 kb/s
Channel(s)                               : 2 channels
Channel positions                        : Front: L R
Sampling rate                            : 48.0 kHz
Stream size                              : 160 MiB (19%)

Thumbnail




Category:Movies > Bollywood
Lang:Hindi
Total Size:850.10 MB
Info Hash:87bd865d1ca5cba261b314787e3df8951d1f3f34
Added By:Pherarim
Date Added:02-08-2017 03:21:56
Downloads:5,200

Ratings:Not Yet Rated (Log in to rate it)


Tracker:
udp://9.rarbg.me:2710/announce


File List: 


Comments

<< Previous      Next >>
1 - 2

[Report] Posted: 04-08-2017 at 05:08:13
mpahwa01



nice

[Report] Posted: 04-08-2017 at 17:45:23
oyemontu



bakwas sound and too any ads, don't download

1 - 2
<< Previous      Next >>


Top
Copyright 2018 DownloadHD -|- Page Generated In 1.418035 secs.
-|- RSS Feed -|- Feed Info
Season 6 Episode 8 Ghosts of Girlfriends Past | IcecoldReloaded (Icecold Reloaded) - freezer | Tập 32 Tần Thời Minh Nguyệt – Thiên Hành Cửu Ca