Login
Username:
Password:
[Signup]
[Recover Account]


Browse Torrents

Poll


You must be logged in to view polls



Latest Torrents
James.Corden.2018....
- [Size: 629.37 MB]

James.Corden.2018....
- [Size: 627.24 MB]

James.Corden.2018....
- [Size: 883.03 MB]

Leah.Remini.Scient...
- [Size: 608.87 MB]

Leah.Remini.Scient...
- [Size: 832.73 MB]


Torrent Details For "30 Days of Night 2 Dark Days 2010 720p Esub BRRIP Dual Audio English Hindi GOPISAHI"

30 Days of Night 2 Dark Days 2010 720p Esub BRRIP Dual Audio English Hindi GOPISAHI

Download this torrent | Magnet Download
Health:
Seeds: 0
Leechers: 6
Completed: 508 
Last Checked: 23-08-2018 06:43:37
External Torrent
Update Stats



Images Host

Poster
No poster


iMDB
Imdb Picture Title: 30 Days of Night: Dark Days
Year: 2010
Runtime: 92 minutes
Votes: 10694
Rating: 4.4/10
Language: English
Country: USA
All Genres: Horror, Thriller
Plot Outline: After surviving the incidents in Barrow, Alaska, Stella Olemaun relocates to Los Angeles, where she intentionally attracts the attention of the local vampire population in order to avenge the death of her husband, Eben.
Tagline: Don't walk into the dark.
Director: Ben Ketai
Writing By: Steve Niles,Ben Ketai,Steve Niles,Ben Templesmith,
Produced By: Ted Adams,Rui Costa Reis,Eliad Josephson,Greg Malcolm,Vicki Sotheran,Rob Tapert,J.R. Young,
Music: Andres Boulton
Plot:

It has been a year since the isolated Alaskan town of Barrow's population was decimated by vampires during its annual month long sunset. Riddled with grief over the death of her husband Eben, bound by nightmares and void of all emotions beyond hate and sorrow, Stella Oleson has spent the past months traveling the world, trying to convince others that vampires exist. Met with skepticism and laughter, she is ready to throw in the towel when a group of lost souls offers an incredible opportunity: the chance to exact revenge upon Lilith, the vampire queen responsible for the assault on her sleepy Alaskan town. With nothing remaining to live for, and nothing left to fear, Stella joins their mission and ventures into the uncharted underbelly of Los Angeles where she pushes herself to the most extreme limits to stop the evil from striking again.

- Written by Fango

After the destruction and rebuilding of Barrow, Alaska, Stella Oleson misses her beloved husband Eben and spends her time giving lectures uncovering the truth about the incident in Barrow and the existence of vampires to the world, following the lead of the unknown Dane. In Los Angeles, Stella uses ultraviolet lights in the auditorium to expose the vampires to the audience but the FBI Agent Norris (Troy Ruptash) tells that the incident was a hoax. When Stella returns to the motel where she is lodged, she meets Paul, Todd and Amber that are vampire hunters and leans that Agent Norris is a wannabe vampire and the vampire leader Lilith is in the city and ready to return to Alaska. Further, she finds that Dane (Ben Cotton) is a vampire that has kept humanity after his transformation and wants to destroy Lilith. Stella joins the quartet that is armed and ready to battle against the evil vampires.

- Written by Claudio Carvalho, Rio de Janeiro, Brazil

Stella (Kiele Sanchez) experienced a real terror in Alaska, where her husband was killed by vampires. After a long journey around the world, trying to prove their existence, she settled in Los Angeles. There she came across with a vampire society. Determined to get revenge for her husband's death-Eben, she will do the impossible to destroy the vampires.

- Written by CvetyGeorgieva

After surviving the incidents in Barrow, Alaska, Stella Olemaun relocates to Los Angeles, where she intentionally attracts the attention of the local vampire population in order to avenge the death of her husband, Eben.

- Written by Anonymous
Cast:
Kiele Sanchez as Stella
Rhys Coiro as Paul
Diora Baird as Amber
Harold Perrineau as Todd
Mia Kirshner as Lilith
Troy Ruptash as Agent Norris
Ben Cotton as Dane
Katie Keating as Jennifer
Katharine Isabelle as Stacey
James Pizzinato as Clyde


Watch-Free-HD     Download

Details
Name:30 Days of Night 2 Dark Days 2010 720p Esub BRRIP Dual Audio English Hindi GOPISAHI
Description:

Video
Format                         : AVC
Codec ID                       : V_MPEG4/ISO/AVC
Duration                       : 1 h 32 min
Bit rate                       : 959 kb/s
Width                          : 1 280 pixels
Height                         : 688 pixels
Display aspect ratio           : 1.85:1
Frame rate mode                : Constant
Frame rate                     : 23.976 FPS
Stream size                    : 626 MiB (85%)
Writing library                : x264 core 112

Audio #1
Format                         : AAC
Duration                       : 1 h 32 min
Bit rate                       : 81.8 kb/s
Channel(s)                     : 6 channels
Channel positions              : Front: L C R, Side: L R, LFE
Sampling rate                  : 44.1 kHz
Frame rate                     : 43.066 FPS (1024 SPF)
Stream size                    : 54.1 MiB (7%)
Language                       : English

Audio #2
Format                         : AAC
Duration                       : 1 h 29 min
Bit rate                       : 84.9 kb/s
Channel(s)                     : 6 channels
Channel positions              : Front: L C R, Side: L R, LFE
Sampling rate                  : 44.1 kHz
Frame rate                     : 43.066 FPS (1024 SPF)
Stream size                    : 54.1 MiB (7%)
Language                       : Hindi

Text
Duration                       : 1 h 27 min
Bit rate                       : 23 b/s
Count of elements              : 602
Stream size                    : 15.2 KiB (0%)
Language                       : English



Category:Movies > Hollywood Dub
Lang:Hindi
Total Size:736.02 MB
Info Hash:54d3980bc53bf36fd5d3098cd0e15797310b945a
Added By:gopisahi
Date Added:22-07-2017 23:34:03
Downloads:1,118

Ratings:Not Yet Rated (Log in to rate it)


Tracker:
udp://tracker.coppersurfer.tk:6969/announce


File List: 


Comments

<< Previous      Next >>
1 - 1

[Report] Posted: 23-07-2017 at 02:08:01
Damn



Again whiteness !!! Disappointment...

1 - 1
<< Previous      Next >>


Top
Copyright 2018 DownloadHD -|- Page Generated In 0.330213 secs.
-|- RSS Feed -|- Feed Info
Are Computers Necessary? - 539 Words | 26.11.1804:20 Uhr Bravo Hits Jesien 2018 Pop320 kbit/s 0 / 04.937 Hits VID P2P DDL 0 Kommentare | 18Yo Minx Amy Quinn Riding Big Cock In Knee Highs