Login
Username:
Password:
[Signup]
[Recover Account]


Browse Torrents

Poll


You must be logged in to view polls



Latest Torrents
5 Weddings (2018) ...
- [Size: 698.51 MB]

Crazy.Rich.Asians....
- [Size: 3.20 GB]

BigBoss.S12.Ep41.1...
- [Size: 3.50 GB]

Puzzle.2018.HDRip....
- [Size: 1.43 GB]

Puzzle.2018.HDRip....
- [Size: 1.34 GB]


Torrent Details For "Raabta (2017) 720P HDRip UNCUT x264 Hindi E-Subs 1Gb [TaHD]"

Raabta (2017) 720P HDRip UNCUT x264 Hindi E-Subs 1Gb [TaHD]

Download this torrent | Magnet Download
Health:
Seeds: 0
Leechers: 2
Completed: 1,725 
Last Checked: 17-06-2018 19:00:54
External Torrent
Update Stats



Images Host

Poster


iMDB
Imdb Picture Title: Raabta
Year: 2017
Runtime: 147 minutes
Votes: 128
Rating: 6.2/10
Language: Hindi
Country: India
All Genres: Comedy, Drama, Mystery, Romance
Plot Outline: In 2017, Shiv and Saira fall for each other and form an inseparable connection. Until, Saira crosses paths with a reincarnated lover from a previous lifetime who is determined to make her his lover again.
Director: Dinesh Vijan
Writing By: Garima,Siddharth,
Produced By: Homi Adajania,Murshid Akhtar,Hanif Chunawala,Priya Gupta,Madhav Roy Kapur,Zita Kisgergely,Bhushan Kumar,Prem Pillai,Poonam Shivdasani,Avi Udeshi,Dinesh Vijan,
Music: Pritam Chakraborty Jigar Saraiya
Plot:

In 2017, Shiv and Saira fall for each other and form an inseparable connection. Until, Saira crosses paths with a reincarnated lover from a previous lifetime who is determined to make her his lover again.


Cast:
Deepika Padukone as Dancer
Kriti Sanon as Saira
Sushant Singh Rajput as Shiv
Rajkummar Rao as
Jim Sarbh as
Varun Sharma as
Nidhi Subbaiah as
Miroslav Lhotka as Zak's bodyquard
Karan Chhabra as
Satendra Bagasi as Dhruv
Trailers:
Raabta Official Trailer


Watch-Free-HD     Download

Details
Name:Raabta (2017) 720P HDRip UNCUT x264 Hindi E-Subs 1Gb [TaHD]
Description:




Raabta (2017) 720P HDRip UNCUT x264 Hindi E-Subs 1Gb [TaHD]

Plot:-
In 2017, Shiv and Saira fall for each other and form an inseparable connection. Until, Saira crosses paths with a reincarnated lover from a previous lifetime who is determined to make her his lover again.
Director: Dinesh Vijan
Writers: Garima, Siddharth
Stars: Deepika Padukone, Kriti Sanon, Sushant Singh Rajput
Genre: Comedy, Drama, Mystery
IMDB: http://www.imdb.com/title/tt5542802

Screenshots:- Click to Enlarge:-

 http://imgchili.net/show/107727/107727804_raabtanew_(1).png
 http://imgchili.net/show/107727/107727806_raabtanew_(2).png
 http://imgchili.net/show/107727/107727807_raabtanew_(3).png
 http://imgchili.net/show/107727/107727808_raabtanew_(4).png
 http://imgchili.net/show/107727/107727809_raabtanew_(5).png
 http://imgchili.net/show/107727/107727810_raabtanew_(6).png
 http://imgchili.net/show/107727/107727812_raabtanew_(7).png
 http://imgchili.net/show/107727/107727814_raabtanew_(9).png

Quote:

Format                                   : Matroska
Format version                           : Version 4 / Version 2
File size                                : 1.42 GiB
Duration                                 : 2 h 23 min
Overall bit rate                         : 1 410 kb/s

Video
ID                                       : 1
Format                                   : AVC
Format/Info                              : Advanced Video Codec
Format profile                           : [email protected]
Format settings, CABAC                   : Yes
Format settings, RefFrames               : 3 frames
Codec ID                                 : V_MPEG4/ISO/AVC
Duration                                 : 2 h 23 min
Bit rate                                 : 1 280 kb/s
Width                                    : 1 280 pixels
Height                                   : 720 pixels
Display aspect ratio                     : 16:9
Frame rate mode                          : Constant
Frame rate                               : 12.000 FPS
Color space                              : YUV
Chroma subsampling                       : 4:2:0
Bit depth                                : 8 bits
Scan type                                : Progressive
Bits/(Pixel*Frame)                       : 0.116
Stream size                              : 1.29 GiB (91%)
Title                                    : TaHD
Writing library                          : x264 core 148 r2643 5c65704

Audio
ID                                       : 2
Format                                   : AAC
Format/Info                              : Advanced Audio Codec
Format profile                           : LC
Codec ID                                 : A_AAC
Duration                                 : 2 h 23 min
Bit rate                                 : 128 kb/s
Channel(s)                               : 2 channels
Channel positions                        : Front: L R
Sampling rate                            : 44.1 kHz
Frame rate                               : 43.066 FPS (1024 SPF)
Compression mode                         : Lossy
Stream size                              : 132 MiB (9%)
Title                                    : TaHD
Language                                 : Hindi
Default                                  : Yes

SAMPLE:-
 DOWNLOAD SAMPLE

Source UNCOTUCHED 720p - Thanks TLR

To keep us going Support us by donating Bitcoin: 1DzidrnvDgq95yDEqnsByYw4D5J2UH6jLZ

If you like my post, don't forget to say Thanks.

Category:Movies > Bollywood
Lang:Hindi
Total Size:1.42 GB
Info Hash:b2a06e555cdae00d6020548374f4eb7936b2173c
Added By:sharmi123
Date Added:21-07-2017 01:38:42
Downloads:2,003

Ratings:Not Yet Rated (Log in to rate it)


Tracker:
udp://tracker.coppersurfer.tk:6969/announce


File List: 


Comments

<< Previous      Next >>
1 - 2

[Report] Posted: 21-07-2017 at 02:39:17
madhujya



gd

[Report] Posted: 22-07-2017 at 08:42:59
jackal



file is not good!!! not running smoothly

1 - 2
<< Previous      Next >>


Top
Copyright 2018 DownloadHD -|- Page Generated In 0.511641 secs.
-|- RSS Feed -|- Feed Info