Login
Username:
Password:
[Signup]
[Recover Account]


Browse Torrents

Poll


You must be logged in to view polls



Latest Torrents
Puzzle.2018.HDRip....
- [Size: 1.43 GB]

Puzzle.2018.HDRip....
- [Size: 1.34 GB]

Sui.Dhaaga.2018.Hi...
- [Size: 3.00 GB]

The Girl in the Sp...
- [Size: 972.81 MB]

Sally4Ever.S01E01....
- [Size: 195.91 MB]


Torrent Details For "UFOs.Declassified.S01E06.WEB.h264-UNDERBELLY"

UFOs.Declassified.S01E06.WEB.h264-UNDERBELLY

Download this torrent | Magnet Download
Health:
Seeds: 0
Leechers: 3
Completed:
Last Checked: 06-08-2018 03:35:13
External Torrent
Update Stats



Images Host

Poster


iMDB
Imdb Picture Title: UFOs Declassified
Year: 2015
Runtime: 47 minutes
Votes: 93
Rating: 7.3/10
Language: English
Country: Canada
All Genres: Documentary, History
Plot Outline: UFOs Declassified uncovers the world's most amazing UFO stories and reveals the top secret documents that back them up!
Director: Wayne Abbott
Tim Wolochatiuk
Gary Lang
Writing By: Wayne Abbott,Christopher Blow,Gary Lang,John Moores,Daniel Sadler,Denis Seguin,Benjamin Tucker,
Produced By: Jocelyne Abbott,Wayne Abbott,John Moores,
Music: Peter Mundinger
Plot:

UFOs Declassified uncovers the world's most amazing UFO stories and reveals the top secret documents that back them up!


Cast:
Brad Cartner as Narrator
Leslie Kean as Herself - Journalist & UFO Researcher
Nick Pope as Himself - UK Ministry of Defence, Retired
Louis Adams as Eugene Tollefson
Craig Cyr as Intelligence Officer
Ed Allenby as Belgian off-duty Police Officer
Brian Scott Carleton as Air Traffic Controller
Paul M. Coombs as 1882 Astronomer
Rob Jones as Bud Stefans
Kevin Patrick Buxton as Shawbury Meterologist Officer


Watch-Free-HD     Download

Details
Name:UFOs.Declassified.S01E06.WEB.h264-UNDERBELLY
Description:

UFOs.Declassified.S01E06.WEB.h264-UNDERBELLY.mkv

General
Format                                   : Matroska
Format version                           : Version 4 / Version 2
File size                                : 613 MiB
Duration                                 : 44 min 34 s
Overall bit rate                         : 1 923 kb/s
Encoded date                             : UTC 2017-07-16 12:02:10
Writing application                      : mkvmerge v13.0.0 ('The Juggler') 64bit
Writing library                          : libebml v1.3.4 + libmatroska v1.4.5

Video
ID                                       : 1
Format                                   : AVC
Format/Info                              : Advanced Video Codec
Format profile                           : [email protected]
Format settings, CABAC                   : Yes
Format settings, ReFrames                : 3 frames
Codec ID                                 : V_MPEG4/ISO/AVC
Duration                                 : 44 min 34 s
Bit rate                                 : 1 793 kb/s
Width                                    : 720 pixels
Height                                   : 396 pixels
Display aspect ratio                     : 16:9
Frame rate mode                          : Constant
Frame rate                               : 25.000 FPS
Color space                              : YUV
Chroma subsampling                       : 4:2:0
Bit depth                                : 8 bits
Scan type                                : Progressive
Bits/(Pixel*Frame)                       : 0.252
Stream size                              : 572 MiB (93%)
Writing library                          : Zencoder Video Encoding System
Language                                 : English
Default                                  : Yes
Forced                                   : No

Audio
ID                                       : 2
Format                                   : AAC
Format/Info                              : Advanced Audio Codec
Format profile                           : LC
Codec ID                                 : A_AAC
Duration                                 : 44 min 34 s
Bit rate                                 : 128 kb/s
Channel(s)                               : 2 channels
Channel positions                        : Front: L R
Sampling rate                            : 48.0 kHz
Frame rate                               : 46.875 FPS (1024 spf)
Compression mode                         : Lossy
Delay relative to video                  : -55 ms
Stream size                              : 40.8 MiB (7%)
Language                                 : English
Default                                  : Yes
Forced                                   : No

Category:TV > WEB-HD
Lang:English  English
Total Size:613.91 MB
Info Hash:b6f7477c181dd2cd827dfc7316461a4797a5ba70
Added By:DzrgTorrents
Date Added:20-07-2017 02:29:56
Downloads:131

Ratings:Not Yet Rated (Log in to rate it)


Tracker:
http://opentracker-milanesi.rhcloud.com/announce

This Torrent also has backup trackers
URLSeedersLeechersCompleted
http://opentracker-milanesi.rhcloud.com/announce1250
http://t.nyaatracker.com/announce8428
http://open.kickasstracker.com/announce1170
http://opentracker-milanesi.rhcloud.com:80/announce2210
http://open.kickasstracker.com:443/announce1170
http://opentracker-milanesi.rhcloud.com:443/announce1250
http://t.nyaatracker.com:80/announce8428
http://www.evolutionworld.pw:2710/announce002


File List: 


Comments

No comments still posted

Top
Copyright 2018 DownloadHD -|- Page Generated In 0.231161 secs.
-|- RSS Feed -|- Feed Info