Login
Username:
Password:
[Signup]
[Recover Account]


Browse Torrents

Poll


You must be logged in to view polls



Latest Torrents
Tosh.0.S10E20.WEB....
- [Size: 201.90 MB]

Tigers (2018) Hind...
- [Size: 698.80 MB]

Real.Country.S01E0...
- [Size: 579.76 MB]

Padmaavat.2018 72...
- [Size: 2.99 GB]

TMZ.on.TV.2018.11....
- [Size: 160.78 MB]


Torrent Details For "Luck (2009) Hindi 1080p WebHDRip x264 AAC { TaRa }.mkv"

Luck (2009) Hindi 1080p WebHDRip x264 AAC { TaRa }.mkv

Download this torrent | Magnet Download
Health:
Seeds: 0
Leechers: 3
Completed:
Last Checked: 19-08-2018 18:19:49
External Torrent
Update Stats



Images Host

Poster


iMDB
Imdb Picture Title: Luck
Year: 2009
Runtime: 141 minutes
Votes: 1750
Rating: 4.8/10
Language: Hindi
Country: India
All Genres: Action, Adventure, Drama, Thriller
Plot Outline: An underworld kingpin instructs his honcho to recruit people endowed with 'Luck' from across the globe to take part in a series of games designed to test their 'Luck' factor, as gamblers around the world bet on them.
Director: Soham Shah
Writing By: Renzil D'Silva,Soham Shah,Soham Shah,Soham Shah,
Produced By: Dhaval Jatania,Kulthep Narula,Rachvin Narula,
Music: Salim Merchant Amar Mohile Salim-Sulaiman
Plot:

Born lucky, Karim Moussa takes to exploiting it instead of focusing on studies. Now a wealthy gambler, he decides to recruit about a dozen lucky people to participate in a deadly game of survival. His agent, Lakhaan Tamaang, recruits Ram Mehra - whose father killed himself after losing 25 Crores - and is about to lose everything he and his mom own, and may end up being arrested for robbing an ATM machine; Major Jabbar Pratap Singh - who needs money for his wife's treatment; a camel jockey, Shortcut, sold by her parents for Rs.15000/-, who wants to make it big in life; a returning player, Ayesha, who had already participated, and is back for more; a psychotic serial killer, Raghav Raghuvaran, who miraculously escaped the death penalty. All of the above, including others from different countries, must compete, kill each other, with the survivor netting 20 Crores Rupees in just 20 days.

- Written by rAjOo ([email protected])

An underworld kingpin instructs his honcho to recruit people endowed with 'Luck' from across the globe to take part in a series of games designed to test their 'Luck' factor, as gamblers around the world bet on them.

- Written by Chittaranjan
Cast:
Mithun Chakraborty as Major Jabbar Pratap Singh
Sanjay Dutt as Karim Moussa
Imran Khan as Ram Mehra
Ravi Kishan as Raghav Raghuvaran
Chitrashi Rawat as Shortcut
Shruti Haasan as Ayesha
Snita Mehay as Angela
Danny Denzongpa as Lakhaan Tamaang
Rati Agnihotri as Mrs. Mehra
Rupa Ganguly as Major Pratap Singh's Wife


Watch-Free-HD     Download

Details
Name:Luck (2009) Hindi 1080p WebHDRip x264 AAC { TaRa }.mkv
Description:

Luck (2009) Hindi 1080p WebHDRip x264 AAC { TaRa }.mkv


===================================================================
General
Complete name               : Luck (2009) Hindi 1080p WebHDRip x264 AAC { TaRa }.mkv
Format                      : Matroska
Format version              : Version 4 / Version 2
File size                   : 1.60 GiB
Duration                    : 2 h 14 min
Overall bit rate mode       : Variable
Overall bit rate            : 1 694 kb/s
===================================================================
Video
ID                          : 1
Format                      : AVC
Format/Info                 : Advanced Video Codec
Format profile              : [email protected]
Format settings, CABAC      : Yes
Format settings, ReFrames   : 3 frames
Codec ID                    : V_MPEG4/ISO/AVC
Duration                    : 2 h 14 min
Bit rate mode               : Variable
Bit rate                    : 1 578 kb/s
Maximum bit rate            : 1 600 kb/s
Width                       : 1 920 pixels
Height                      : 816 pixels
Display aspect ratio        : 2.35:1
Frame rate mode             : Constant
Frame rate                  : 25.000 FPS
Color space                 : YUV
Chroma subsampling          : 4:2:0
Bit depth                   : 8 bits
Scan type                   : Progressive
Bits/(Pixel*Frame)          : 0.040
Stream size                 : 1.49 GiB (93%)
Title                       : .....::::: TaRa :::::.....
Language                    : Hindi
Default                     : Yes
Forced                      : No
===================================================================
Audio
ID                          : 2
Format                      : AAC
Format/Info                 : Advanced Audio Codec
Format profile              : LC
Codec ID                    : A_AAC
Duration                    : 2 h 14 min
Bit rate                    : 114 kb/s
Channel(s)                  : 2 channels
Channel positions           : Front: L R
Sampling rate               : 44.1 kHz
Frame rate                  : 43.066 FPS (1024 spf)
Compression mode            : Lossy
Stream size                 : 110 MiB (7%)
Title                       : .....::::: TaRa :::::.....
Language                    : Hindi
Default                     : Yes
Forced                      : No
===================================================================




                                                   










Category:Movies > Bollywood
Lang:Hindi
Total Size:1.60 GB
Info Hash:463ff1ea7e835d82f01f61f2c002315aee7b2742
Added By:SkTaRa
Date Added:25-04-2017 13:27:24
Downloads:299

Ratings:Not Yet Rated (Log in to rate it)

  


Tracker:
udp://tracker.ccc.de:80/announce

This Torrent also has backup trackers
URLSeedersLeechersCompleted
http://tracker.dler.org:6969/announce000
http://ipv4.tracker.harry.lu:80/announce111
http://explodie.org:6969/announce000


File List: 


Comments

No comments still posted

Top
Copyright 2018 DownloadHD -|- Page Generated In 4.785471 secs.
-|- RSS Feed -|- Feed Info
400 Days (2015) 720p BRRip 800MB | Sony Playstation 4 + 4 Spiele | To Kill a Mockingbird