Login
Username:
Password:
[Signup]
[Recover Account]


Browse Torrents

Poll


You must be logged in to view polls



Latest Torrents
Hunter.Killer.2018...
- [Size: 1.31 GB]

Hunter.Killer.2018...
- [Size: 1.31 GB]

A.Boy.A.Girl.A.Dre...
- [Size: 3.69 GB]

Christmas.Presence...
- [Size: 4.02 GB]

The.Case.That.Haun...
- [Size: 234.82 MB]


Torrent Details For "The Promise 2016 1080p BluRay x264 DTS 5.1 - Download"

The Promise 2016 1080p BluRay x264 DTS 5.1 - Download

Download this torrent | Magnet Download
Health:
Seeds: 0
Leechers: 15
Completed: 48,361 
Last Checked: 21-08-2018 07:45:43
External Torrent
Update Stats



Images Host

Poster


Watch-Free-HD     Download

Details
Name:The Promise 2016 1080p BluRay x264 DTS 5.1 - Download
Description:
The Promise 2016 1080p BluRay x264 DTS 5.1 - Download

Format                      : Matroska
Format version              : Version 4 / Version 2
File size                   : 7.94 GiB
Duration                    : 2 h 13 min
Overall bit rate            : 8 542 kb/s
Movie name                  : The Promise 2016  - [email protected]

Video
ID                          : 1
Format                      : AVC
Format/Info                 : Advanced Video Codec
Format profile              : [email protected]
Format settings, CABAC      : Yes
Format settings, ReFrames   : 5 frames
Codec ID                    : V_MPEG4/ISO/AVC
Duration                    : 2 h 13 min
Bit rate                    : 7 033 kb/s
Width                       : 1 920 pixels
Height                      : 800 pixels
Display aspect ratio        : 2.40:1
Frame rate mode             : Constant
Frame rate                  : 23.976 (24000/1001) FPS


Audio
ID                          : 3
Format                      : DTS
Format/Info                 : Digital Theater Systems
Mode                        : 16
Format settings, Endianness : Big
Codec ID                    : A_DTS
Duration                    : 2 h 13 min
Bit rate mode               : Constant
Bit rate                    : 1 509 kb/s
Channel(s)                  : 6 channels
Channel positions           : Front: L C R, Side: L R, LFE
Sampling rate               : 48.0 kHz
Frame rate                  : 93.750 FPS (512 spf)
Bit depth                   : 24 bits
Compression mode            : Lossy
Stream size                 : 1.40 GiB (18%)
Language                    : English
Default                     : Yes
Forced                      : No

Text
ID                          : 2
Format                      : UTF-8
Codec ID                    : S_TEXT/UTF8
Codec ID/Info               : UTF-8 Plain Text
Duration                    : 2 h 3 min
Bit rate                    : 58 b/s
Count of elements           : 1393
Stream size                 : 53.2 KiB (0%)
Language                    : English
Default                     : Yes
Forced                      : No

Menu
00:00:00.000                : en:Chapter 01
00:04:56.462                : en:Chapter 02
00:12:03.013                : en:Chapter 03
00:16:07.216                : en:Chapter 04
00:21:19.778                : en:Chapter 05
00:28:05.100                : en:Chapter 06
00:37:21.656                : en:Chapter 07
00:43:51.003                : en:Chapter 08
00:48:13.015                : en:Chapter 09
00:54:36.356                : en:Chapter 10
01:02:12.186                : en:Chapter 11
01:11:25.906                : en:Chapter 12
01:25:44.389                : en:Chapter 13
01:29:50.760                : en:Chapter 14
01:34:18.736                : en:Chapter 15
01:42:04.576                : en:Chapter 16
01:46:51.321                : en:Chapter 17
01:52:30.952                : en:Chapter 18
02:01:30.408                : en:Chapter 19
02:05:01.494                : en:Chapter 20



       
Category:Movies > 1080P Bluray
Lang:English  English
Total Size:7.94 GB
Info Hash:1c8c1f6bff700dd464c282b9c01873bf6afccc7b
Added By:Unknown
Date Added:14-07-2017 13:39:06
Downloads:91

Ratings:Not Yet Rated (Log in to rate it)


Tracker:
udp://tracker.coppersurfer.tk:6969/announce


File List: 


Comments

No comments still posted

Top
Copyright 2018 DownloadHD -|- Page Generated In 0.847502 secs.
-|- RSS Feed -|- Feed Info
2560x1440 | Watch movie | phone memory cards