Login
Username:
Password:
[Signup]
[Recover Account]


Browse Torrents

Poll


You must be logged in to view polls



Latest Torrents
Ekon.Eken-[2018]-[...
- [Size: 1.99 GB]

Madras Cafe (2013)...
- [Size: 1.69 GB]

Crazy Frog - The B...
- [Size: 111.67 MB]

Beyond.The.Sky.201...
- [Size: 16.97 GB]

The.Happytime.Murd...
- [Size: 4.45 GB]


Torrent Details For "Powerpuff Girls (H) Season 1 Complete WebRip 540p ~VKS3385"

Powerpuff Girls (H) Season 1 Complete WebRip 540p ~VKS3385

Download this torrent | Magnet Download
Health:
Seeds: 0
Leechers: 1
Completed:
Last Checked: 18-08-2018 20:41:33
External Torrent
Update Stats



Images Host

Poster
No poster


iMDB
Imdb Picture Title: The Powerpuff Girls
Year: 1998
Runtime: 30 minutes
Votes: 27967
Rating: 7.3/10
Language: English
Country: USA, Hong Kong
All Genres: Animation, Action, Comedy, Family, Fantasy, Sci-Fi
Plot Outline: Three super-powered little girls constantly save the world (or at least the city of Townsville) from monsters, would-be conquerers and a few other gross things.
Tagline: Saving the world before bedtime.
Director: Craig McCracken
John McIntyre
Randy Myers
Lauren Faust
Genndy Tartakovsky
Robert Alvarez
Rob Renzetti
Chris Savino
Brian Larsen
Writing By: Craig McCracken,Amy Keating Rogers,Chris Savino,John McIntyre,Lauren Faust,Craig Lewis,Cindy Morrow,Chris Reccardi,Jason Butler Rote,Randy Myers,Michael Ryan,Nate Cash,Thurop Van Orman,Clay Morrow,Brian Larsen,David P. Smith,Justin Thompson,Bryan Andrews,Mike Kim,Dave Dunnet,Carey Yost,Mark O'Hare,Dayla Kennedy,Zeke Kamm,Rob Renzetti,Kevin Kaliher,Charlie Bean,Chris Mitchell,Alex Almaguer,Bobby London,Steve Fonti,Don Shank,Mike Stern,Mark Andrews,Sean Carolan,Shellie Kvilvang,Jennifer Moore,Lynne Naylor,Paul Rudish,Genndy Tartakovsky,Mike Bell,Greg Colton,Paul McEvoy,Ken Allen,David Mucci Fassett,Tim Parsons,Craig Strong,Tara Strong,
Produced By: Craig McCracken,Genndy Tartakovsky,Chris Savino,Brian A. Miller,Donna Castricone,Vincent Aniceto,Kelly Crews,Shareena Carlson,
Music: Steve Rucker James L. Venable Thomas Chase David P. Smith Jennifer Kes Remington
Plot:

The straight-laced Prof. Utonium's attempt to create perfect little girls accidentally includes "Chemical X", resulting in take-charge red-head Blossom, blonde sweety-pie Bubbles and ready-to-fight brunette Buttercup. These flying, super-strong, karate-chopping girls with the occasional heat vision race into action to save the city of Townsville (and, we're told, the world) from all sorts of crimes and creatures.

- Written by Ray Schaff -2-

Three super-powered little girls constantly save the world (or at least the city of Townsville) from monsters, would-be conquerers and a few other gross things.

- Written by Ray Schaff -2-
Cast:
Cathy Cavadini as Blossom
Elizabeth Daily as Buttercup
Tom Kenny as Narrator
Tara Strong as Bubbles
Tom Kane as Professor
Roger Jackson as Mojo Jojo
Jennifer Hale as Ms. Keane
Jennifer Martin as Ms. Bellum
Jeff Bennett as Ace
Dee Bradley Baker as Baby


Watch-Free-HD     Download

Details
Name:Powerpuff Girls (H) Season 1 Complete WebRip 540p ~VKS3385
Description:
General
Complete name : Powerpuff Girls (H) Season 1 Complete WebRip 540p
Format : MPEG-4
Format profile : Base Media
Codec ID : isom (isom/iso2/avc1/mp41)
File size : 28.9 MiB - 40.0 MiB
Duration : Variable
Overall bit rate mode : Variable
Overall bit rate : 344 kb/s
Writing application : Lavf56.40.101

Video
ID : 1
Format : AVC
Format/Info : Advanced Video Codec
Format profile : [email protected]
Format settings, CABAC : No
Format settings, ReFrames : 1 frame
Codec ID : avc1
Codec ID/Info : Advanced Video Coding
Duration : Variable
Bit rate : 274 kb/s
Nominal bit rate : 256 kb/s
Width : 640 pixels
Height : 512 pixels
Display aspect ratio : 5:4
Frame rate mode : Constant
Frame rate : 25.000 FPS
Color space : YUV
Chroma subsampling : 4:2:0
Bit depth : 8 bits
Scan type : Progressive
Bits/(Pixel*Frame) : 0.033
Stream size : 23.1 MiB (80%)
Writing library : x264 core 146 r2538 121396c
Encoding settings : cabac=0 / ref=1 / deblock=1:0:0 / analyse=0x1:0x111 / me=hex / subme=2 / psy=1 / psy_rd=1.00:0.00 / mixed_ref=0 / me_range=16 / chroma_me=1 / trellis=1 / 8x8dct=0 / cqm=0 / deadzone=21,11 / fast_pskip=1 / chroma_qp_offset=0 / threads=4 / lookahead_threads=1 / sliced_threads=0 / nr=0 / decimate=1 / interlaced=0 / bluray_compat=0 / constrained_intra=0 / bframes=0 / weightp=0 / keyint=86400 / keyint_min=20 / scenecut=40 / intra_refresh=0 / rc_lookahead=40 / rc=cbr / mbtree=1 / bitrate=256 / ratetol=1.0 / qcomp=0.60 / qpmin=10 / qpmax=50 / qpstep=4 / vbv_maxrate=256 / vbv_bufsize=1200 / nal_hrd=none / filler=0 / ip_ratio=1.41 / aq=1:1.00

Audio
ID : 2
Format : AAC
Format/Info : Advanced Audio Codec
Format profile : LC
Codec ID : 40
Duration : 11 min 45 s
Bit rate mode : Variable
Bit rate : 64.0 kb/s
Maximum bit rate : 66.2 kb/s
Channel(s) : 2 channels
Channel positions : Front: L R
Sampling rate : 44.1 kHz
Frame rate : 43.066 FPS (1024 spf)
Compression mode : Lossy
Stream size : 5.38 MiB (19%)
Default : Yes
Alternate group : 1
Category:TV > WEB-HD
Lang:Hindi
Total Size:1.01 GB
Info Hash:27275421e91fa0501cd77f5e87983c99721cd23c
Added By:VKS3385
Date Added:12-07-2017 06:11:58
Downloads:229

Ratings:Not Yet Rated (Log in to rate it)


Tracker:
UDP://TRACKER.LEECHERS-PARADISE.ORG:6969/ANNOUNCE


File List: 

Error reading .nfo file!

Comments

No comments still posted

Top
Copyright 2018 DownloadHD -|- Page Generated In 0.299064 secs.
-|- RSS Feed -|- Feed Info
Phim Bá»™ 2012 | Jeong Hyeong Don | Rosewood (132)