Login
Username:
Password:
[Signup]
[Recover Account]


Browse Torrents

Poll


You must be logged in to view polls



Latest Torrents
Mom.S06E11.720p.HD...
- [Size: 106.15 MB]

Mom.S06E11.HDTV.x2...
- [Size: 142.47 MB]

Mom.S06E11.HDTV.x2...
- [Size: 142.47 MB]

Mom.S06E11.720p.HD...
- [Size: 496.39 MB]

Mom.S06E11.720p.HD...
- [Size: 529.14 MB]


Torrent Details For "Assassin's Creed 2016 1080p BluRay x264 [Hindi DD 5.1 + Eng DD 5.1] ESub - V3NOM"

Assassin's Creed 2016 1080p BluRay x264 [Hindi DD 5.1 + Eng DD 5.1] ESub - V3NOM

Download this torrent | Magnet Download
Health:
Seeds: 0
Leechers: 58
Completed: 18 
Last Checked: 16-07-2017 04:24:41
External Torrent
Update Stats



Images Host

Poster


Watch-Free-HD     Download

Details
Name:Assassin's Creed 2016 1080p BluRay x264 [Hindi DD 5.1 + Eng DD 5.1] ESub - V3NOM
Description:
Assassin's Creed 2016 1080p BluRay x264 [Hindi DD 5.1 + Eng DD 5.1] ESub - V3NOM

Format                      : Matroska
Format version              : Version 4 / Version 2
File size                   : 3.15 GiB
Duration                    : 1 h 55 min
Overall bit rate            : 3 898 kb/s
Movie name                  : Assassins Creed (2016) - V3NOM

Video
ID                          : 1
Format                      : AVC
Format/Info                 : Advanced Video Codec
Format profile              : [email protected]
Format settings, CABAC      : Yes
Format settings, ReFrames   : 5 frames
Codec ID                    : V_MPEG4/ISO/AVC
Duration                    : 1 h 55 min
Bit rate                    : 3 000 kb/s
Width                       : 1 920 pixels
Height                      : 804 pixels
Display aspect ratio        : 2.40:1
Frame rate mode             : Constant
Frame rate                  : 23.976 (24000/1001) FPS


Audio #1
ID                          : 3
Format                      : AC-3
Format/Info                 : Audio Coding 3
Format settings, Endianness : Big
Codec ID                    : A_AC3
Duration                    : 1 h 55 min
Bit rate mode               : Constant
Bit rate                    : 448 kb/s
Channel(s)                  : 6 channels
Channel positions           : Front: L C R, Side: L R, LFE
Sampling rate               : 48.0 kHz
Frame rate                  : 31.250 FPS (1536 spf)
Bit depth                   : 16 bits
Compression mode            : Lossy
Delay relative to video     : -21 ms
Stream size                 : 370 MiB (11%)
Title                       : Dolby Digital 5.1Ch Org BluRay
Language                    : Hindi
Service kind                : Complete Main
Default                     : No
Forced                      : No

Audio #2
ID                          : 4
Format                      : AC-3
Format/Info                 : Audio Coding 3
Format settings, Endianness : Big
Codec ID                    : A_AC3
Duration                    : 1 h 55 min
Bit rate mode               : Constant
Bit rate                    : 448 kb/s
Channel(s)                  : 6 channels
Channel positions           : Front: L C R, Side: L R, LFE
Sampling rate               : 48.0 kHz
Frame rate                  : 31.250 FPS (1536 spf)
Bit depth                   : 16 bits
Compression mode            : Lossy
Delay relative to video     : -21 ms
Stream size                 : 370 MiB (11%)
Title                       : Dolby Digital 5.1Ch Org BluRay
Language                    : English
Service kind                : Complete Main
Default                     : Yes
Forced                      : No

Text
ID                          : 2
Format                      : ASS
Codec ID                    : S_TEXT/ASS
Codec ID/Info               : Advanced Sub Station Alpha
Duration                    : 1 h 42 min
Bit rate                    : 47 b/s
Count of elements           : 721
Compression mode            : Lossless
Stream size                 : 35.3 KiB (0%)
Language                    : English
Default                     : No
Forced                      : No

Menu
00:00:00.000                : :00:00:00.000
00:06:04.155                : :00:06:04.155
00:09:32.697                : :00:09:32.697
00:12:47.558                : :00:12:47.517
00:16:47.715                : :00:16:47.715
00:21:07.433                : :00:21:07.433
00:26:56.448                : :00:26:56.448
00:31:55.080                : :00:31:55.080
00:38:06.284                : :00:38:06.284
00:41:43.167                : :00:41:43.167
00:46:33.040                : :00:46:33.040
00:50:10.341                : :00:50:10.257
00:53:04.390                : :00:53:04.390
00:56:17.624                : :00:56:17.624
00:59:26.480                : :00:59:26.480
01:02:32.582                : :01:02:32.582
01:06:37.035                : :01:06:37.035
01:13:08.759                : :01:13:08.759
01:18:45.888                : :01:18:45.888
01:23:01.143                : :01:23:01.101
01:30:18.038                : :01:30:17.996
01:34:18.194                : :01:34:18.194
01:37:45.193                : :01:37:45.193
01:40:51.003                : :01:40:51.003

           
Category:Movies > Hollywood Dub
Lang:Hindi
Total Size:3.15 GB
Info Hash:f8f42adf6b648ed2d726360e68ec0c8888fc09b8
Added By:V3NOM
Date Added:10-07-2017 19:55:52
Downloads:471

Ratings:Not Yet Rated (Log in to rate it)


Tracker:
udp://tracker.coppersurfer.tk:6969/announce


File List: 


Comments

No comments still posted

Top
Copyright 2018 DownloadHD -|- Page Generated In 0.410470 secs.
-|- RSS Feed -|- Feed Info
BeeTV AdFree APK | USA | Canada | | BoxOffice