Login
Username:
Password:
[Signup]
[Recover Account]


Browse Torrents

Poll


You must be logged in to view polls



Latest Torrents
Mom.S06E11.HDTV.x2...
- [Size: 142.47 MB]

Mom.S06E11.720p.HD...
- [Size: 496.39 MB]

Mom.S06E11.720p.HD...
- [Size: 529.14 MB]

Supernatural.S14E0...
- [Size: 149.74 MB]

The.Apprentice.UK....
- [Size: 806.65 MB]


Torrent Details For "The.Commitments.1991.1080p.BluRay.X264-AMIABLE"

The.Commitments.1991.1080p.BluRay.X264-AMIABLE

Download this torrent | Magnet Download
Health:
Seeds: 0
Leechers: 10
Completed:
Last Checked: 18-11-2017 03:12:24
External Torrent
Update Stats



Images Host

Poster
No poster


iMDB
Imdb Picture Title: The Commitments
Year: 1991
Runtime: 118 minutes
Votes: 27097
Rating: 7.6/10
Language: English, Irish
Country: Ireland, UK, USA
All Genres: Comedy, Drama, Music
Plot Outline: When Jimmy Rabbitte wants to start a band, he has open auditions at his house.
Tagline: They had nothing to lose, they risked it all.
Director: Alan Parker
Writing By: Roddy Doyle,Dick Clement,Ian La Frenais,Roddy Doyle,
Produced By: Marc Abraham,Armyan Bernstein,Dick Clement,Souter Harris,Ian La Frenais,Lynda Myles,Roger Randall-Cutler,Tom Rosenberg,David Wimbury,
Music: Wilson Pickett
Plot:

Funny, musical and occasionally dramatic, this is the story of tumultuous rise and fall of a Dublin Soul band, The Commitments. Managed by Jimmy Rabbitte, an unemployed wheeler and dealer with a vision to create "The Worlds Hardest Working Band".

- Written by Rockpile

Jimmy Rabbitte, bored with bands in Ireland, assembles a soul band in the tradition of Wilson Pickett, Otis Redding, and Aretha Franklin made up of a group of young white musicians from working class Dublin. With the help of Joey "The Lips" Fagan, the veteran musician of the band who has played around the world with famous musicians, they whip the members into shape - coming together beautifully onstage, only to have the group fall apart in a clash of egos.

- Written by Jim

Dublin, Ireland. Local entrepreneur Jimmy Rabbitte is putting a band together (which he will manage). Through friends, contacts, auditions and blind luck he puts together his band - The Commitments. He decides what music they will play - soul. We see how the pieces come together, the auditions, the skepticism from his parents, their first rehearsal, how things start to come together and their first few gigs. We also see the relationships in the band, particularly the friction. Soon they are standing on the threshold of stardom.

- Written by grantss

Jimmy Rabbitte, just a tick out of school, gets a brilliant idea: to put a soul band together in Barrytown, his slum home in north Dublin. First he needs musicians and singers: things slowly start to click when he finds three fine-voiced females virtually in his back yard, a lead singer (Deco) at a wedding, and, responding to his ad, an aging trumpet player, Joey "The Lips" Fagan. Song by song, gig by gig, the Commitments start their climb to the top: Dublin gets soul. But internal strife also builds: Deco is insufferable, Joey's a Casanova, and Jimmy may lack the seasoning to hold things together. Will the Commitments slip away?

- Written by <[email protected]>

When Jimmy Rabbitte wants to start a band, he has open auditions at his house.


Cast:
Robert Arkins as Jimmy Rabbitte
Michael Aherne as Steven Clifford
Angeline Ball as Imelda Quirke
Maria Doyle Kennedy as Natalie Murphy
Dave Finnegan as Mickah Wallace
Bronagh Gallagher as Bernie McGloughlin
FĂ©lim Gormley as Dean Fay
Glen Hansard as Outspan Foster
Dick Massey as Billy Mooney
Johnny Murphy as Joey 'The Lips' Fagan


Watch-Free-HD     Download

Details
Name:The.Commitments.1991.1080p.BluRay.X264-AMIABLE
Description:

MediaInfo

Video
ID                                       : 1
Format                                   : AVC
Format/Info                              : Advanced Video Codec
Format profile                           : [email protected]
Format settings, CABAC                   : Yes
Format settings, ReFrames                : 4 frames
Codec ID                                 : V_MPEG4/ISO/AVC
Duration                                 : 1 h 57 min
Bit rate                                 : 11.8 Mb/s
Width                                    : 1 920 pixels
Height                                   : 1 040 pixels
Display aspect ratio                     : 1.85:1
Frame rate mode                          : Constant
Frame rate                               : 23.976 (24000/1001) FPS
Color space                              : YUV
Chroma subsampling                       : 4:2:0
Bit depth                                : 8 bits
Scan type                                : Progressive
Bits/(Pixel*Frame)                       : 0.246
Stream size                              : 9.47 GiB (87%)
Writing library                          : x264 core 148 r2705 3f5ed56
Encoding settings                        : cabac=1 / ref=4 / deblock=1:-3:-3 / analyse=0x3:0x113 / me=umh / subme=8 / psy=1 / psy_rd=1.10:0.00 / mixed_ref=1 / me_range=32 / chroma_me=1 / trellis=1 / 8x8dct=1 / cqm=0 / deadzone=21,11 / fast_pskip=1 / chroma_qp_offset=-2 / threads=24 / lookahead_threads=4 / sliced_threads=0 / nr=0 / decimate=1 / interlaced=0 / bluray_compat=0 / constrained_intra=0 / bframes=3 / b_pyramid=2 / b_adapt=2 / b_bias=0 / direct=3 / weightb=1 / open_gop=0 / weightp=2 / keyint=240 / keyint_min=24 / scenecut=40 / intra_refresh=0 / rc_lookahead=50 / rc=2pass / mbtree=1 / bitrate=11759 / ratetol=1.0 / qcomp=0.60 / qpmin=0 / qpmax=69 / qpstep=4 / cplxblur=20.0 / qblur=0.5 / ip_ratio=1.40 / aq=3:0.80
Default                                  : Yes
Forced                                   : No
Statistics Tags Issue                    : no_variable_data 1970-01-01 00:00:00 / no_variable_data 2010-02-22 21:41:29
FromStats_BitRate                        : 11754409
FromStats_Duration                       : 01:57:56.612000000
FromStats_FrameCount                     : 169669
FromStats_StreamSize                     : 10397674476

Audio
ID                                       : 2
Format                                   : DTS
Format/Info                              : Digital Theater Systems
Mode                                     : 16
Format settings, Endianness              : Big
Codec ID                                 : A_DTS
Duration                                 : 1 h 57 min
Bit rate mode                            : Constant
Bit rate                                 : 1 509 kb/s
Channel(s)                               : 6 channels
Channel positions                        : Front: L C R, Side: L R, LFE
Sampling rate                            : 48.0 kHz
Frame rate                               : 93.750 FPS (512 spf)
Bit depth                                : 24 bits
Compression mode                         : Lossy
Stream size                              : 1.24 GiB (11%)
Language                                 : English
Default                                  : Yes
Forced                                   : No
Statistics Tags Issue                    : no_variable_data 1970-01-01 00:00:00 / no_variable_data 2010-02-22 21:41:29
FromStats_BitRate                        : 1508999
FromStats_Duration                       : 01:57:55.563000000
FromStats_FrameCount                     : 663334
FromStats_StreamSize                     : 1334628008

Menu
00:00:00.000                             : en:00:00:00.000
00:09:02.125                             : en:00:09:02.125
00:21:42.676                             : en:00:21:42.676
00:30:52.017                             : en:00:30:52.017
00:41:43.793                             : en:00:41:43.793
00:51:54.820                             : en:00:51:54.820
01:02:18.443                             : en:01:02:18.443
01:09:12.065                             : en:01:09:12.065
01:19:17.962                             : en:01:19:17.962
01:27:24.072                             : en:01:27:24.072
01:39:48.482                             : en:01:39:48.482
01:46:42.271                             : en:01:46:42.271
01:53:35.017                             : en:01:53:35.017

 
Category:Movies > 1080P Bluray
Lang:English  English
Total Size:10.93 GB
Info Hash:8a8cc56e42c99f415d2f6e7dacd4e3eaf76b7f3d
Added By:Unknown
Date Added:10-07-2017 11:53:56
Downloads:45

Ratings:Not Yet Rated (Log in to rate it)


Tracker:
http://tracker.trackerfix.com:80/announce


File List: 


Comments

No comments still posted

Top
Copyright 2018 DownloadHD -|- Page Generated In 0.895283 secs.
-|- RSS Feed -|- Feed Info
Clay Aiken | The Lucky One DVDRIP | AddtoCart