Login
Username:
Password:
[Signup]
[Recover Account]


Browse Torrents

Poll


You must be logged in to view polls



Latest Torrents
Jalebi The Taste o...
- [Size: 1.27 GB]

Stephen.Colbert.20...
- [Size: 648.64 MB]

Hum Saath Saath Ha...
- [Size: 1.67 GB]

Adam.Ruins.Everyth...
- [Size: 455.49 MB]

Brothers.in.Arms.S...
- [Size: 580.65 MB]


Torrent Details For "Lupt (2018) Hindi 720p Pre-DVDRip - x264 AAC 950MB - MovCr"

Lupt (2018) Hindi 720p Pre-DVDRip - x264 AAC 950MB - MovCr

Download this torrent | Magnet Download
Health:
Seeds: 257
Leechers: 33
Completed: 11,922 
Last Checked: 12-12-2018 04:46:22
External Torrent
Update Stats



Images Host

Poster


iMDB
Title: Lupt
Year: 2018
Runtime: 117 minutes
Votes: 108
Rating: 7.3/10
Language: Hindi
Director: Prabhuraj
Writing By: Prabhuraj,
Produced By: Hanwant Khatri,Lalit Kiri,
Cast:
Javed Jaffrey as Harsh Tandon
Vijay Raaz as Dev Shukla
Niki Walia as Shalini Tandon
Karan Aanand as Rahul
Kasturi Banerjee as Vidya
Rajeev Bhardwaj as Kumar
Rishab Chadha as Sam
Meenakshi Dixit as Tanu
Rishina Kandhari as Geeta
Kierra as Riya
Trailers:
Lupt Trailer


Watch-Free-HD     Download

Details
Name:Lupt (2018) Hindi 720p Pre-DVDRip - x264 AAC 950MB - MovCr
Description:
 www.movcr.cc


Lupt (2018) Hindi 720p Pre-DVDRip - x264 AAC 950MB - MovCr




 http://www.imdb.com/title/tt8698956/

 

General
Unique ID                                : 95270298139735880582689386837577336443 (0x47AC645A19584C7681C4E3C6A8F8867B)
Complete name                            : [MovCr.cc] - Lupt (2018) Hindi 720p Pre-DVDRip - x264 AAC 950MB - MovCr.mkv
Format                                   : Matroska
Format version                           : Version 4 / Version 2
File size                                : 933 MiB
Duration                                 : 1 h 58 min
Overall bit rate                         : 1 104 kb/s
Movie name                               : www.MovCr.cc
Encoded date                             : UTC 2018-11-17 15:49:33
Writing application                      : mkvmerge v26.0.0 ('In The Game') 64-bit
Writing library                          : libebml v1.3.6 + libmatroska v1.4.9

Video
ID                                       : 1
Format                                   : AVC
Format/Info                              : Advanced Video Codec
Format profile                           : [email protected]
Format settings                          : 2 Ref Frames
Format settings, CABAC                   : No
Format settings, RefFrames               : 2 frames
Codec ID                                 : V_MPEG4/ISO/AVC
Duration                                 : 1 h 58 min
Bit rate                                 : 915 kb/s
Width                                    : 1 280 pixels
Height                                   : 544 pixels
Display aspect ratio                     : 2.35:1
Frame rate mode                          : Constant
Frame rate                               : 25.000 FPS
Color space                              : YUV
Chroma subsampling                       : 4:2:0
Bit depth                                : 8 bits
Scan type                                : Progressive
Bits/(Pixel*Frame)                       : 0.053
Stream size                              : 773 MiB (83%)
Title                                    : www.MovCr.cc
Default                                  : Yes
Forced                                   : No

Audio
ID                                       : 2
Format                                   : AAC
Format/Info                              : Advanced Audio Codec
Format profile                           : LC
Codec ID                                 : A_AAC-2
Duration                                 : 1 h 58 min
Bit rate                                 : 187 kb/s
Channel(s)                               : 2 channels
Channel positions                        : Front: L R
Sampling rate                            : 48.0 kHz
Frame rate                               : 46.875 FPS (1024 SPF)
Compression mode                         : Lossy
Stream size                              : 158 MiB (17%)
Title                                    : www.MovCr.cc
Language                                 : Hindi
Default                                  : Yes
Forced                                   : No



 
 
 
 
 
 
 
 
 
 
 
 

Category:Movies > Bollywood
Lang:Hindi
Total Size:933.30 MB
Info Hash:4133577bbfff5fa6e6b481283ba1b3bd61293476
Added By:Kingmaker
Date Added:17-11-2018 16:00:53
Downloads:913

Ratings:Not Yet Rated (Log in to rate it)


Tracker:
udp://tracker.coppersurfer.tk:6969/announce


File List: 


Comments

No comments still posted

Top
Copyright 2018 DownloadHD -|- Page Generated In 1.942279 secs.
-|- RSS Feed -|- Feed Info
Yu Gi Oh! VRAINS | Generic Power Bank - 20,000 mAh - Super Slim Design With Polymer Battery - Rose Gold KSh 1,749 (14) Buy now | Android TV Boxes & Accessories