Login
Username:
Password:
[Signup]
[Recover Account]


Browse Torrents

Poll


You must be logged in to view polls



Latest Torrents
The.Happytime.Murd...
- [Size: 679.41 MB]

A Turtle's Tale 2 ...
- [Size: 1.26 GB]

Ekon.Eken-[2018]-[...
- [Size: 1.99 GB]

Madras Cafe (2013)...
- [Size: 1.69 GB]

Crazy Frog - The B...
- [Size: 111.67 MB]


Torrent Details For "Godzilla 2014 1080p 3D BluRay Half SBS Dual Audio DD 5.1[Hindi English] [email protected]!"

Godzilla 2014 1080p 3D BluRay Half SBS Dual Audio DD 5.1[Hindi English] [email protected]!

Download this torrent | Magnet Download
Health:
Seeds: 0
Leechers: 2
Completed: 162 
Last Checked: 02-11-2018 18:53:40
External Torrent
Update Stats



Images Host

Poster
No poster


iMDB
Imdb Picture Title: Godzilla
Year: 2014
Runtime: 123 minutes
Votes: 320171
Rating: 6.4/10
Language: English, Japanese
Country: USA, Japan
All Genres: Action, Adventure, Sci-Fi, Thriller
Plot Outline: The world is beset by the appearance of monstrous creatures, but one of them may be the only one who can save humanity.
Tagline: The king will rise
Director: Gareth Edwards
Writing By: Max Borenstein,Dave Callaham,Ishir√ī Honda,Takeo Murata,Shigeru Kayama,Frank Darabont,David S. Goyer,
Produced By: Yoshimitsu Banno,Martin Cohen,Bob Ducsay,Alex Garcia,Jon Jashni,Kenji Okuhira,Mary Parent,Brian Rogers,Jim Rowe,Leeann Stonebreaker,Shannon Triplett,Thomas Tull,Patricia Whitcher,
Music: Alexandre Desplat
Plot:

In 1999, the Janjira nuclear plant was mysteriously destroyed with most hands lost including supervisor Joe Brody's colleague and wife, Sandra. Years later, Joe's son, Ford, a US Navy ordnance disposal officer, must go to Japan to help his estranged father who obsessively searches for the truth of the incident. In doing so, father and son discover the disaster's secret cause on the wreck's very grounds. This enables them to witness the reawakening of a terrible threat to all of Humanity, which is made all the worse with a second secret revival elsewhere. Against this cataclysm, the only hope for the world may be Godzilla, but the challenge for the King of the Monsters will be great even as Humanity struggles to understand the destructive ally they have.

- Written by Kenneth Chisholm ([email protected])

In 1999, in Japan, there is a mysterious accident with the reactors of the Janjira nuclear power plant and the engineer Joe Brody loses his wife Sandra Brody and her team that were inspecting the reactor. Joe never accepts the official explanation for the accident. Fifteen years later, his son, the US Navy Officer Ford Brody, learns that Joe has trespassed in Janjira quarantine area and is arrested in Japan. He travels to Japan to release his father and they go to the Janjira facility area to retrieve Joe's data and pictures. Soon they discover the truth about the accident, caused by a "Massive Unidentified Terrestrial Organism" ("MUTO") that eats radiation trapped underground. The MUTO escapes from the secret facility to Honolulu killing Joe. Godzilla is also awakened, causes a tsunami in Hawaii and fights against the MUTO destroying Honolulu. Meanwhile a female MUTO escapes from the Nevada nuclear waste facility and destroys Las Vegas, heading to breed with the first MUTO in San Francisco. Now the last hope on Earth is Godzilla fighting and destroying the MUTO's.

- Written by Claudio Carvalho, Rio de Janeiro, Brazil

When mankind found an ancient spore, they began to preserved until nearly 15 years, it hatches. Now with maloevent terrestrial organisms threatening the existence of man kind, an ancient creature from the depts of the ocean, will rise again to fulfill natures order to restore its balance, while also making sure mankind never makes the same mistakes again.

The world is beset by the appearance of monstrous creatures, but one of them may be the only one who can save humanity.

- Written by Universal Pictures
Cast:
Aaron Taylor-Johnson as Ford Brody
CJ Adams as Young Ford
Ken Watanabe as Dr. Ishiro Serizawa
Bryan Cranston as Joe Brody
Elizabeth Olsen as Elle Brody
Carson Bolde as Sam Brody
Sally Hawkins as Vivienne Graham
Juliette Binoche as Sandra Brody
David Strathairn as Admiral William Stenz
Richard T. Jones as Captain Russell Hampton
Trailers:
Extended First Look
Teaser
International Trailer
Official Trailer #1


Watch-Free-HD     Download

Details
Name:Godzilla 2014 1080p 3D BluRay Half SBS Dual Audio DD 5.1[Hindi English] [email protected]!
Description:
 

Godzilla 2014 1080p 3D BluRay Half SBS Dual Audio DD 5.1[Hindi English] [email protected]!

Audio Source : Org Bluray Own

IMDB Link : www.imdb.com/title/tt0831387/

Video
ID                                       : 1
Format                                   : AVC
Format/Info                              : Advanced Video Codec
Format profile ¬† ¬† ¬† ¬† ¬† ¬† ¬† ¬† ¬† ¬† ¬† ¬† ¬† : [email protected]
Format settings, CABAC                   : Yes
Format settings, ReFrames                : 5 frames
Codec ID                                 : V_MPEG4/ISO/AVC
Duration                                 : 2 h 3 min
Bit rate                                 : 2 400 kb/s
Width                                    : 1 920 pixels
Height                                   : 800 pixels
Display aspect ratio                     : 2.40:1
Frame rate mode                          : Constant
Frame rate                               : 23.976 (24000/1001) FPS
Color space                              : YUV
Chroma subsampling                       : 4:2:0
Bit depth                                : 8 bits
Scan type                                : Progressive
Bits/(Pixel*Frame)                       : 0.065
Stream size                              : 2.06 GiB (74%)
Title ¬† ¬† ¬† ¬† ¬† ¬† ¬† ¬† ¬† ¬† ¬† ¬† ¬† ¬† ¬† ¬† ¬† ¬†: Godzilla 2014 1080p 3D BluRay Half SBS Dual Audio DD 5.1[Hindi+English] [email protected]!
Writing library                          : x264 core 142 r2479 dd79a61
Language                                 : English
Default                                  : Yes
Forced                                   : No
Color range                              : Limited
Color primaries                          : BT.709
Transfer characteristics                 : BT.709
Matrix coefficients                      : BT.709

Audio #1
ID                                       : 2
Format                                   : AC-3
Format/Info                              : Audio Coding 3
Format settings, Endianness              : Big
Codec ID                                 : A_AC3
Duration                                 : 2 h 3 min
Bit rate mode                            : Constant
Bit rate                                 : 448 kb/s
Channel(s)                               : 6 channels
Channel positions                        : Front: L C R, Side: L R, LFE
Sampling rate                            : 48.0 kHz
Frame rate                               : 31.250 FPS (1536 spf)
Bit depth                                : 16 bits
Compression mode                         : Lossy
Delay relative to video                  : -105 ms
Stream size                              : 395 MiB (14%)
Title                                    : Org BD 5.1
Language                                 : Hindi
Service kind                             : Complete Main
Default                                  : Yes
Forced                                   : No

Audio #2
ID                                       : 3
Format                                   : AC-3
Format/Info                              : Audio Coding 3
Format settings, Endianness              : Big
Codec ID                                 : A_AC3
Duration                                 : 2 h 3 min
Bit rate mode                            : Constant
Bit rate                                 : 384 kb/s
Channel(s)                               : 6 channels
Channel positions                        : Front: L C R, Side: L R, LFE
Sampling rate                            : 48.0 kHz
Frame rate                               : 31.250 FPS (1536 spf)
Bit depth                                : 16 bits
Compression mode                         : Lossy
Delay relative to video                  : -105 ms
Stream size                              : 338 MiB (12%)
Title                                    : Org BD 5.1
Language                                 : English
Service kind                             : Complete Main
Default                                  : No
Forced                                   : No

Menu
00:00:00.000                             : :00:00:00.000
00:09:22.687                             : :00:09:22.562
00:19:03.392                             : :00:19:03.225
00:30:25.615                             : :00:30:25.532
00:39:10.264                             : :00:39:10.098
00:49:43.605                             : :00:49:43.439
00:59:27.397                             : :00:59:27.189
01:09:50.311                             : :01:09:50.186
01:19:11.371                             : :01:19:11.246
01:29:57.433                             : :01:29:57.267
01:40:14.883                             : :01:40:14.759
01:52:14.811                             : :01:52:14.728
01:56:10.296                             : :01:56:10.088

 
 
 
 
 
 
 
Category:Movies > 3D
Lang:Hindi
Total Size:2.82 GB
Info Hash:2702f77b71e77361e62697911a93950c19b91d9c
Added By:Sup2425
Date Added:08-07-2017 12:28:21
Downloads:405

Ratings:Not Yet Rated (Log in to rate it)


Tracker:
udp://inferno.demonoid.pw:3391/announce


File List: 


Comments

No comments still posted

Top
Copyright 2018 DownloadHD -|- Page Generated In 1.500238 secs.
-|- RSS Feed -|- Feed Info
Birra e oggettistica | Alternative | ASUS X73B / X73T Power Button Board LS-7325P Taste