Login
Username:
Password:
[Signup]
[Recover Account]


Browse Torrents

Poll


You must be logged in to view polls



Latest Torrents
Jalebi The Taste o...
- [Size: 1.27 GB]

Stephen.Colbert.20...
- [Size: 648.64 MB]

Hum Saath Saath Ha...
- [Size: 1.67 GB]

Adam.Ruins.Everyth...
- [Size: 455.49 MB]

Brothers.in.Arms.S...
- [Size: 580.65 MB]


Torrent Details For "Inxeba.AKA.The.Wound.2017.1080p.AMZN.WEBRip.DDP5.1.x264-Cinefeel"

Inxeba.AKA.The.Wound.2017.1080p.AMZN.WEBRip.DDP5.1.x264-Cinefeel

Download this torrent | Magnet Download
Health:
Seeds: 16
Leechers: 26
Completed: 111 
Last Checked: 09-11-2018 09:19:29
External Torrent
Update Stats



Images Host

Poster


iMDB
Original Title: Inxeba
Title: Les initiés
Year: 2017
Runtime: 88 minutes
Votes: 1137
Rating: 6.7/10
Language: Xhosa, Afrikaans, English
Tagline: Some stories can't be retold
Director: John Trengove
Writing By: John Trengove,Thando Mgqolozana,Malusi Bengu,John Trengove,Batana Vundla,
Produced By: Marie Dubas,Michael Eckelt,Olaf Grunert,Bianca Isaac,Björn Koll,Jade Köhler,Eric Lagesse,Cait Pansegrouw,Elias Ribeiro,Trent,Claudia Tronnier,Anette Unger,Batana Vundla,
Music: João Orecchia
Cast:
Nakhane Touré as Xolani
Bongile Mantsai as Vija
Niza Jay as Kwanda
Thobani Mseleni as Babalo
Gabriel Mini as Khwalo
Zwelakhe Mtsaka as Elder 1
Menzeleli Majola as Elder 2
Gamelihle Bovana as Sicelo
Halalisani Bradley Cebekhulu as Lukas
Inga Qwede as Ncedo


Watch-Free-HD     Download

Details
Name:Inxeba.AKA.The.Wound.2017.1080p.AMZN.WEBRip.DDP5.1.x264-Cinefeel
Description:
Video
ID : 1
Format : AVC
Format/Info : Advanced Video Codec
Format profile : [email protected]
Format settings : CABAC / 4 Ref Frames
Format settings, CABAC : Yes
Format settings, ReFrames : 4 frames
Codec ID : V_MPEG4/ISO/AVC
Duration : 1 h 28 min
Bit rate mode : Variable
Bit rate : 5 732 kb/s
Maximum bit rate : 15.0 Mb/s
Width : 1 920 pixels
Height : 1 080 pixels
Display aspect ratio : 16:9
Frame rate mode : Constant
Frame rate : 24.000 FPS
Color space : YUV
Chroma subsampling : 4:2:0
Bit depth : 8 bits
Scan type : Progressive
Bits/(Pixel*Frame) : 0.115
Stream size : 3.54 GiB (90%)
Default : Yes
Forced : No
Color range : Limited
Color primaries : BT.709
Transfer characteristics : BT.709
Matrix coefficients : BT.709

Audio
ID : 2
Format : E-AC-3
Format/Info : Enhanced AC-3
Commercial name : Dolby Digital Plus
Codec ID : A_EAC3
Duration : 1 h 28 min
Bit rate mode : Constant
Bit rate : 640 kb/s
Channel(s) : 6 channels
Channel layout : L R C LFE Ls Rs
Sampling rate : 48.0 kHz
Frame rate : 31.250 FPS (1536 SPF)
Compression mode : Lossy
Stream size : 404 MiB (10%)
Language : Chinese
Service kind : Complete Main
Default : Yes
Forced : No

 http://imagecurl.com/viewer.p...0763912507058560.png


 http://imagecurl.com/viewer.p...4158349631172288.png


 http://imagecurl.com/viewer.p...1863312.png[/center]
Category:Movies > WEB-HD
Lang:English  English
Total Size:3.93 GB
Info Hash:d738a71e930b8ca94bb8eb02548969d83290e352
Added By:Scene
Date Added:09-11-2018 06:36:55
Downloads:25

Ratings:Not Yet Rated (Log in to rate it)


Tracker:
http://tracker.trackerfix.com:80/announce


File List: 


Comments

No comments still posted

Top
Copyright 2018 DownloadHD -|- Page Generated In 0.109963 secs.
-|- RSS Feed -|- Feed Info
Jorge Garcia | Nejde mail | The Peanuts Movie