Login
Username:
Password:
[Signup]
[Recover Account]


Browse Torrents

Poll


You must be logged in to view polls



Latest Torrents
The Clovehitch Kil...
- [Size: 858.84 MB]

Fantastic Beasts T...
- [Size: 864.57 MB]

Fantastic Beasts T...
- [Size: 743.06 MB]

Speed Kills (2018)...
- [Size: 802.82 MB]

Videoman.2018.BDRi...
- [Size: 545.41 MB]


Torrent Details For "Have.a.Nice.Day.2017.1080p.AMZN.WEBRip.DDP5.1.x264-Cinefeel"

Have.a.Nice.Day.2017.1080p.AMZN.WEBRip.DDP5.1.x264-Cinefeel

Download this torrent | Magnet Download
Health:
Seeds: 44
Leechers: 22
Completed: 520 
Last Checked: 09-11-2018 09:19:35
External Torrent
Update Stats



Images Host

Poster


iMDB
Original Title: Hao jile
Title: Have a Nice Day
Year: 2017
Runtime: 77 minutes
Votes: 1116
Rating: 6.5/10
Language: Mandarin
Director: Jian Liu
Writing By: Jian Liu,
Produced By: Rui Jin,Jian Liu,Cheng Yang,
Cast:
Changlong Zhu as Xiao Zhang
Kai Cao as Lao Zhao
Jian Liu as Fang Yuanjun / Li Er
Siming Yang as Liu shu
Haitao Shi as A De
Xiaofeng Ma as Shoupi
Feng Xue as Lao San
Yi Zheng as Erjie
Kou Cao as Huangyan
Hong Zhu as Gu Anan
Trailers:
Have a Nice Day
Have A Nice Day US Trailer


Watch-Free-HD     Download

Details
Name:Have.a.Nice.Day.2017.1080p.AMZN.WEBRip.DDP5.1.x264-Cinefeel
Description:
Video
ID : 1
Format : AVC
Format/Info : Advanced Video Codec
Format profile : [email protected]
Format settings : CABAC / 4 Ref Frames
Format settings, CABAC : Yes
Format settings, ReFrames : 4 frames
Codec ID : V_MPEG4/ISO/AVC
Duration : 1 h 14 min
Bit rate : 1 678 kb/s
Width : 1 920 pixels
Height : 1 080 pixels
Display aspect ratio : 16:9
Frame rate mode : Constant
Frame rate : 25.000 FPS
Color space : YUV
Chroma subsampling : 4:2:0
Bit depth : 8 bits
Scan type : Progressive
Bits/(Pixel*Frame) : 0.032
Stream size : 895 MiB (72%)
Default : Yes
Forced : No
Color range : Limited
Color primaries : BT.709
Transfer characteristics : BT.709
Matrix coefficients : BT.709

Audio
ID : 2
Format : E-AC-3
Format/Info : Enhanced AC-3
Commercial name : Dolby Digital Plus
Codec ID : A_EAC3
Duration : 1 h 14 min
Bit rate mode : Constant
Bit rate : 640 kb/s
Channel(s) : 6 channels
Channel layout : L R C LFE Ls Rs
Sampling rate : 48.0 kHz
Frame rate : 31.250 FPS (1536 SPF)
Compression mode : Lossy
Stream size : 341 MiB (28%)
Language : Chinese
Service kind : Complete Main
Default : Yes
Forced : No



 http://imagecurl.com/viewer.p...2599062643468661.png

 http://imagecurl.com/viewer.p...7359185627208128.png


 http://imagecurl.com/viewer.p...0303262.png[/center]
Category:Movies > WEB-HD
Lang:English  English
Total Size:1.21 GB
Info Hash:ac579be7d682db50526108acd9bcb389cfa3d641
Added By:Scene
Date Added:09-11-2018 06:31:45
Downloads:20

Ratings:Not Yet Rated (Log in to rate it)


Tracker:
http://tracker.trackerfix.com:80/announce


File List: 


Comments

No comments still posted

Top
Copyright 2018 DownloadHD -|- Page Generated In 0.038102 secs.
-|- RSS Feed -|- Feed Info
Hinomaru Sumo | Meisten gebote | The Gary Coleman Show