Login
Username:
Password:
[Signup]
[Recover Account]


Browse Torrents

Poll


You must be logged in to view polls



Latest Torrents
Murphy.Brown.S11E1...
- [Size: 110.22 MB]

Live.PD.Police.Pat...
- [Size: 276.03 MB]

Nightflyers.S01E10...
- [Size: 1.45 GB]

Nightflyers.S01E10...
- [Size: 760.77 MB]

Nightflyers.S01E10...
- [Size: 744.79 MB]


Torrent Details For "Rambo.First.Blood.Part.II.1985.REMASTERED.1080p.BluRay.x264.DTS-SWTYBLZ"

Rambo.First.Blood.Part.II.1985.REMASTERED.1080p.BluRay.x264.DTS-SWTYBLZ

Download this torrent | Magnet Download
Health:
Seeds: 42
Leechers: 122
Completed: 270 
Last Checked: 09-11-2018 09:19:41
External Torrent
Update Stats



Images Host

Poster


iMDB
Imdb Picture Title: Rambo: First Blood Part II
Year: 1985
Runtime: 96 minutes
Votes: 128803
Rating: 6.4/10
Language: English, Vietnamese
Country: USA
All Genres: Action, Adventure, Thriller, War
Plot Outline: John Rambo is released from prison by the government for a top-secret covert mission to the last place on Earth he'd want to return - the jungles of Vietnam.
Tagline: What most people call hell, he calls home.
Director: George P. Cosmatos
Writing By: David Morrell,Kevin Jarre,Sylvester Stallone,James Cameron,
Produced By: Mel Dellar,Buzz Feitshans,Mario Kassar,Andrew G. Vajna,
Music: Jerry Goldsmith
Cast:
Sylvester Stallone as Rambo
Richard Crenna as Col. Samuel Trautman
Charles Napier as Marshall Murdock
Steven Berkoff as Lt. Col. Podovsky
Julia Nickson as Co
Martin Kove as Ericson
George Cheung as Tay
Andy Wood as Banks
William Ghent as Captain Vinh
Voyo Goric as Sergeant Yushin
Trailers:
Rambo: First Blood Part II


Watch-Free-HD     Download

Details
Name:Rambo.First.Blood.Part.II.1985.REMASTERED.1080p.BluRay.x264.DTS-SWTYBLZ
Description:

Video
ID : 1
Format : AVC
Format/Info : Advanced Video Codec
Format profile : [email protected]
Format settings : CABAC / 5 Ref Frames
Format settings, CABAC : Yes
Format settings, ReFrames : 5 frames
Codec ID : V_MPEG4/ISO/AVC
Duration : 1 h 35 min
Bit rate : 16.5 Mb/s
Width : 1 920 pixels
Height : 816 pixels
Display aspect ratio : 2.35:1
Frame rate mode : Constant
Frame rate : 24.000 FPS
Color space : YUV
Chroma subsampling : 4:2:0
Bit depth : 8 bits
Scan type : Progressive
Bits/(Pixel*Frame) : 0.440
Stream size : 11.1 GiB (92%)
Title : Rambo.First.Blood.Part.II.1985.REMASTERED.1080p.BluRay.x264.DTS-SWTYBLZ
Writing library : x264 core 157 r2935 545de2f
Encoding settings : cabac=1 / ref=5 / deblock=1:-1:-1 / analyse=0x3:0x133 / me=umh / subme=10 / psy=1 / psy_rd=1.00:0.15 / mixed_ref=1 / me_range=48 / chroma_me=1 / trellis=2 / 8x8dct=1 / cqm=0 / deadzone=21,11 / fast_pskip=1 / chroma_qp_offset=-3 / threads=25 / lookahead_threads=4 / sliced_threads=0 / nr=0 / decimate=0 / interlaced=0 / bluray_compat=0 / constrained_intra=0 / bframes=8 / b_pyramid=2 / b_adapt=2 / b_bias=0 / direct=3 / weightb=1 / open_gop=0 / weightp=2 / keyint=250 / keyint_min=24 / scenecut=40 / intra_refresh=0 / rc_lookahead=60 / rc=crf / mbtree=1 / crf=19.0 / qcomp=0.60 / qpmin=0 / qpmax=69 / qpstep=4 / ip_ratio=1.40 / aq=1:1.00
Language : Finnish
Default : Yes
Forced : No

Audio
ID : 2
Format : DTS
Format/Info : Digital Theater Systems
Codec ID : A_DTS
Duration : 1 h 35 min
Bit rate mode : Constant
Bit rate : 1 509 kb/s
Channel(s) : 6 channels
Channel layout : C L R Ls Rs LFE
Sampling rate : 48.0 kHz
Frame rate : 93.750 FPS (512 SPF)
Bit depth : 24 bits
Compression mode : Lossy
Stream size : 1.01 GiB (8%)
Title : Rambo.First.Blood.Part.II.1985.REMASTERED.1080p.BluRay.x264.DTS-SWTYBLZ
Language : Finnish
Default : Yes
Forced : No



 http://imagecurl.com/viewer.p...0628212990057139.png


 http://imagecurl.com/viewer.p...1892112351875574.png


 http://imagecurl.com/viewer.p...8603662.png[/center]
Category:Movies > 1080P Bluray
Lang:English  English
Total Size:12.08 GB
Info Hash:3c7c21e04001bd89626105897ce34b460f0ede99
Added By:Scene
Date Added:09-11-2018 06:29:04
Downloads:70

Ratings:Not Yet Rated (Log in to rate it)


Tracker:
http://tracker.trackerfix.com:80/announce


File List: 


Comments

No comments still posted

Top
Copyright 2018 DownloadHD -|- Page Generated In 0.302007 secs.
-|- RSS Feed -|- Feed Info
Paranormal Highway | The Girls of Kitty-Kats | 1/12 Dollhouse Miniature Wooden Box with Metal Tool Set H9G2