Login
Username:
Password:
[Signup]
[Recover Account]


Browse Torrents

Poll


You must be logged in to view polls



Latest Torrents
Hunter.Killer.2018...
- [Size: 1.31 GB]

Hunter.Killer.2018...
- [Size: 1.31 GB]

A.Boy.A.Girl.A.Dre...
- [Size: 3.69 GB]

Christmas.Presence...
- [Size: 4.02 GB]

The.Case.That.Haun...
- [Size: 234.82 MB]


Torrent Details For "Knockaround Guys 2001 720p Esub BluRay Dual Audio English Hindi GOPI JATT"

Knockaround Guys 2001 720p Esub BluRay Dual Audio English Hindi GOPI JATT

Download this torrent | Magnet Download
Health:
Seeds: 0
Leechers: 5
Completed:
Last Checked: 17-08-2018 14:53:56
External Torrent
Update Stats



Images Host

Poster


iMDB
Imdb Picture Title: Knockaround Guys
Year: 2001
Runtime: 92 minutes
Votes: 20391
Rating: 6.1/10
Language: English
Country: USA
All Genres: Crime, Drama, Thriller
Plot Outline: The wannabe sons of mobsters go to a remote town in the Midwest, and get themselves into more trouble than anyone could anticipate.
Tagline: This October, Get Knockedaround
Director: Brian Koppelman
David Levien
Writing By: Brian Koppelman,David Levien,
Produced By: Lawrence Bender,Michael De Luca,Julie Kirkham,Brian Koppelman,David Levien,Brian Witten,Stan Wlodkowski,
Music: Clint Mansell
Plot:

The four sons (Diesel, Green, Pepper, Davoli) of major Brooklyn mobsters have to team up to retrieve a bag of cash in a small Montana town ruled by a corrupt sheriff. Specifically, the story gets started when Matt Demaret (Pepper) goes on a job to deliver the money for his mob father (Hopper) on the advice of his uncle (Malkovich). Things don't go as planned though...

- Written by Ryan McIntosh

The wannabe sons of mobsters go to a remote town in the Midwest, and get themselves into more trouble than anyone could anticipate.

- Written by Mystic80
Cast:
Barry Pepper as Matty Demaret
Andy Davoli as Chris Scarpa
Seth Green as Johnny Marbles
Vin Diesel as Taylor Reese
John Malkovich as Teddy Deserve
Arthur J. Nascarella as Billy Clueless
Tom Noonan as Sheriff Decker
Nicholas Pasco as Freddy the Watch
Shawn Doyle as Deputy Ward
Kevin Gage as Brucker


Watch-Free-HD     Download

Details
Name:Knockaround Guys 2001 720p Esub BluRay Dual Audio English Hindi GOPI JATT
Description:

Video
Format                         : AVC
Codec ID                       : V_MPEG4/ISO/AVC
Duration                       : 1 h 31 min
Bit rate                       : 949 kb/s
Width                          : 1 280 pixels
Height                         : 536 pixels
Display aspect ratio           : 2.40:1
Frame rate mode                : Constant
Frame rate                     : 23.976 (24000/1001) FPS
Stream size                    : 622 MiB (83%)
Writing library                : x264 core 142 r2431 ac76440

Audio #1
Format                         : AC-3
Duration                       : 1 h 31 min
Bit rate mode                  : Constant
Bit rate                       : 96.0 kb/s
Channel(s)                     : 6 channels
Channel positions              : Front: L C R, Side: L R, LFE
Sampling rate                  : 44.1 kHz
Frame rate                     : 28.711 FPS (1536 SPF)
Bit depth                      : 16 bits
Stream size                    : 62.9 MiB (8%)
Language                       : English

Audio #2
Format                         : AC-3
Duration                       : 1 h 31 min
Bit rate mode                  : Constant
Bit rate                       : 96.0 kb/s
Channel(s)                     : 6 channels
Channel positions              : Front: L C R, Side: L R, LFE
Sampling rate                  : 44.1 kHz
Frame rate                     : 28.711 FPS (1536 SPF)
Bit depth                      : 16 bits
Delay relative to video        : -83 ms
Stream size                    : 62.9 MiB (8%)
Language                       : Hindi

Text
Duration                       : 1 h 25 min
Stream size                    : 36.0 KiB (0%)
Title                          : Knockaround Guys 2001
Language                       : English


Category:Movies > Hollywood Dub
Lang:Hindi
Total Size:748.75 MB
Info Hash:7fb2d1a0cb0305ec00a0ddffc4e8b50b7a726c8a
Added By:gopisahi
Date Added:07-07-2017 04:05:25
Downloads:590

Ratings:Not Yet Rated (Log in to rate it)


Tracker:
udp://tracker.coppersurfer.tk:6969/announce


File List: 


Comments

No comments still posted

Top
Copyright 2018 DownloadHD -|- Page Generated In 1.190148 secs.
-|- RSS Feed -|- Feed Info
Art Afrikanisch Art Ersten - Maske Affe Dogon - Afrikanisch Monkey Maske - 29 Cm | Goldwell Elumen permanente farbintensive Haarfarbe verschiedene Nuancen - 200 ml | Maxim (0)