Login
Username:
Password:
[Signup]
[Recover Account]


Browse Torrents

Poll


You must be logged in to view polls



Latest Torrents
Bumblebee 2018.NEW...
- [Size: 1.35 GB]

Seth.Meyers.2018.1...
- [Size: 582.88 MB]

Seth.Meyers.2018.1...
- [Size: 586.13 MB]

Seth.Meyers.2018.1...
- [Size: 801.04 MB]

18+.What.Keeps.You...
- [Size: 1.10 GB]


Torrent Details For "The.Good.Witchs.Family.2011.1080p.WEBRip.DD2.0.x264-TrollHD [HDSector]"

The.Good.Witchs.Family.2011.1080p.WEBRip.DD2.0.x264-TrollHD [HDSector]

Download this torrent | Magnet Download
Health:
Seeds: 0
Leechers: 6
Completed:
Last Checked: 30-08-2018 15:28:42
External Torrent
Update Stats



Images Host

Poster


iMDB
Imdb Picture Title: The Good Witch's Family
Year: 2011
Runtime: 83 minutes
Votes: 985
Rating: 7.2/10
Language: English
Country: Canada
All Genres: Drama, Family, Fantasy
Plot Outline: Mayor Tom Tinsdale plans a bridge as his legacy, precursor to Middleton, Delaware's annexation to the city across the river. His wife Martha spearheads the opposition, but instead of her, ...
Director: Craig Pryce
Writing By: G. Ross Parker,Rod Spence,
Produced By: Orly Adelson,Janina Barrett,Jonathan Eskenas,Craig Pryce,Frank Siracusa,
Plot:

Mayor Tom Tinsdale plans a bridge as his legacy, precursor to Middleton, Delaware's annexation to the city across the river. His wife Martha spearheads the opposition, but instead of her, the committee unanimously calls for Cassie to stand for mayor. Jake is preoccupied with controlling demonstrations, but soon finds indications that the merger may not be so good after all. Brandon is composing a song to get him into music academy, but counts for lyrics on buddy Wesley, an incorrigible womanizer, whom Lori has an instant crush on. Cassie invites her just-discovered maternal niece Abigail, who has a mild criminal past and a knack for junior magic.

- Written by KGF Vissers
Cast:
Catherine Bell as Cassandra Nightingale
Chris Potter as Jake Russell
Catherine Disher as Martha Tinsdale
Noah Cappe as Derek Sanders
Hannah Endicott-Douglas as Lori Russell
Karen Ivany as Citizen Jeannie
Matthew Knight as Brandon Russell
Paul Miller as Mayor Tom Tinsdale
Sarah Power as Abigail Pershing
Rhys Ward as Wes Maneri


Watch-Free-HD     Download

Details
Name:The.Good.Witchs.Family.2011.1080p.WEBRip.DD2.0.x264-TrollHD [HDSector]
Description:
Video
ID                                       : 1
Format                                   : AVC
Format/Info                              : Advanced Video Codec
Format profile                           : [email protected]
Format settings, CABAC                   : Yes
Format settings, ReFrames                : 4 frames
Codec ID                                 : V_MPEG4/ISO/AVC
Duration                                 : 1 h 27 min
Bit rate mode                            : Variable
Bit rate                                 : 13.8 Mb/s
Maximum bit rate                         : 15.0 Mb/s
Width                                    : 1 920 pixels
Height                                   : 1 080 pixels
Display aspect ratio                     : 16:9
Frame rate mode                          : Constant
Frame rate                               : 23.976 (24000/1001) FPS

Audio
ID                                       : 2
Format                                   : E-AC-3
Format/Info                              : Enhanced Audio Coding 3
Format settings, Endianness              : Big
Codec ID                                 : A_EAC3
Duration                                 : 1 h 27 min
Bit rate mode                            : Constant
Bit rate                                 : 224 kb/s
Channel(s)                               : 2 channels
Channel positions                        : Front: L R
Sampling rate                            : 48.0 kHz
Frame rate                               : 187.500 FPS (256 spf)
Compression mode                         : Lossy
Stream size                              : 140 MiB (2%)
Language                                 : English
Service kind                             : Complete Main
Default                                  : Yes
Forced                                   : No

Text
ID                                       : 3
Format                                   : UTF-8
Codec ID                                 : S_TEXT/UTF8
Codec ID/Info                            : UTF-8 Plain Text
Duration                                 : 1 h 27 min
Bit rate                                 : 66 b/s
Count of elements                        : 1743
Stream size                              : 42.8 KiB (0%)
Language                                 : English
Default                                  : No
Forced                                   : No







Category:Movies > HDRips
Lang:English  English
Total Size:8.57 GB
Info Hash:b1b9225b2886b7eb76f060f6a726e124f1fe4c05
Added By:SULTAN
Date Added:05-07-2017 19:03:27
Downloads:80

Ratings:Not Yet Rated (Log in to rate it)


Tracker:
http://tracker.trackerfix.com:80/announce


File List: 


Comments

No comments still posted

Top
Copyright 2018 DownloadHD -|- Page Generated In 2.952986 secs.
-|- RSS Feed -|- Feed Info
Terri Minsky | Eureka Seven AO – Todos os Episódios | 绝命时刻:五星之光