Login
Username:
Password:
[Signup]
[Recover Account]


Browse Torrents

Poll


You must be logged in to view polls



Latest Torrents
Bumblebee 2018.NEW...
- [Size: 1.35 GB]

Seth.Meyers.2018.1...
- [Size: 582.88 MB]

Seth.Meyers.2018.1...
- [Size: 586.13 MB]

Seth.Meyers.2018.1...
- [Size: 801.04 MB]

18+.What.Keeps.You...
- [Size: 1.10 GB]


Torrent Details For "Golmaal 3 2010 Untouched 720p WEB-HD AVC AAC - DownloadHD"

Golmaal 3 2010 Untouched 720p WEB-HD AVC AAC - DownloadHD

Download this torrent | Magnet Download
Health:
Seeds: 0
Leechers: 9
Completed: 490 
Last Checked: 21-08-2018 03:17:49
External Torrent
Update Stats



Images Host

Poster


iMDB
Imdb Picture Title: Golmaal 3
Year: 2010
Runtime: 155 minutes
Votes: 5244
Rating: 5.3/10
Language: Hindi
Country: India
All Genres: Action, Comedy
Plot Outline: In Goa, Pritam meets his love Geeta after many years. They decide to get married but the feud between their respective children creates tension in their marriage.
Director: Rohit Shetty
Writing By: Bunty Rathore,Yunus Sajawal,Sajid,Farhad Samji,
Produced By: Rupen Amlani,Hiren Gandhi,Dhaval Jatania,Dhilin Mehta,
Music: Pritam Chakraborty Sanjoy Chowdhury Amar Mohile
Plot:

After selling fake examination papers to students, Madhav, Laxman and Lucky re-locate to Goa, and not only get into verbal & physical confrontations with Gopal and Laxman, but also ruin their jet-ski and fire-works businesses. Feeling threatened, they inform their bus-driver father, Pritam, who goes to confront Gopal and Laxman, and finds out that their mother, Geeta P. Chopra, is his long-lost love. Gopal's girlfriend, Daboo, overhears their conversation, and gets them dramatically married - just in time as Pritam is heavily in debt and is about to be evicted by goons led by Raghav. Chaos and violent confrontations will become the order when he takes his children to live with Geeta, and the newly married couple may conclude that divorce may be the only solution to end their respective children's disputes.

- Written by rAjOo ([email protected])

In Goa, Pritam meets his love Geeta after many years. They decide to get married but the feud between their respective children creates tension in their marriage.

- Written by Soumitra
Cast:
Mithun Chakraborty as Pritam 'Pappu'
Ajay Devgn as Gopal 'Gopu'
Kareena Kapoor as Daboo
Tusshar Kapoor as Lucky
Arshad Warsi as Madhav
Shreyas Talpade as Laxman
Kunal Khemu as Laxman
Ratna Pathak as Geeta 'Guddi' P. Chopra
Johnny Lever as Puppy Bhai
Sanjay Mishra as Daaga


Watch-Free-HD     Download

Details
Name:Golmaal 3 2010 Untouched 720p WEB-HD AVC AAC - DownloadHD
Description:

Golmaal 3 2010 Untouched 720p WEB-HD AVC AAC - DownloadHD

Format                                   : MPEG-4
Format profile                           : Base Media
Codec ID                                 : isom (isom/iso2/avc1/mp41)
File size                                : 1.94 GiB
Duration                                 : 2 h 14 min
Overall bit rate mode                    : Variable
Overall bit rate                         : 2 066 kb/s

Video
ID                                       : 1
Format                                   : AVC
Format/Info                              : Advanced Video Codec
Format profile                           : [email protected]
Format settings, CABAC                   : Yes
Format settings, ReFrames                : 1 frame
Format settings, GOP                     : M=1, N=25
Codec ID                                 : avc1
Codec ID/Info                            : Advanced Video Coding
Duration                                 : 2 h 14 min
Bit rate mode                            : Constant
Bit rate                                 : 2 000 kb/s
Width                                    : 1 280 pixels
Height                                   : 720 pixels
Display aspect ratio                     : 16:9
Frame rate mode                          : Constant
Frame rate                               : 25.000 FPS
Color space                              : YUV
Chroma subsampling                       : 4:2:0
Bit depth                                : 8 bits
Scan type                                : Progressive
Bits/(Pixel*Frame)                       : 0.087
Stream size                              : 1.88 GiB (97%)

Audio
ID                                       : 2
Format                                   : AAC
Format/Info                              : Advanced Audio Codec
Format profile                           : LC
Codec ID                                 : 40
Duration                                 : 2 h 14 min
Bit rate mode                            : Variable
Bit rate                                 : 61.4 kb/s
Maximum bit rate                         : 63.8 kb/s
Channel(s)                               : 2 channels
Channel positions                        : Front: L R
Sampling rate                            : 48.0 kHz
Frame rate                               : 46.875 FPS (1024 spf)
Compression mode                         : Lossy
Stream size                              : 59.0 MiB (3%)
Default                                  : Yes
Alternate group                          : 1



[/align]

[align=center]          
Category:Movies > Bollywood
Lang:Hindi
Total Size:1.94 GB
Info Hash:6c248f71f0e32e00d4456c622bc37c67856588d0
Added By:Unknown
Date Added:17-04-2017 14:30:49
Downloads:401

Ratings:Not Yet Rated (Log in to rate it)


Tracker:
udp://tracker.coppersurfer.tk:6969/announce


File List: 


Comments

No comments still posted

Top
Copyright 2018 DownloadHD -|- Page Generated In 1.604601 secs.
-|- RSS Feed -|- Feed Info
CCleaner v5.49.6856 | Loinaz J√°uregui | Nicki Minaj