Login
Username:
Password:
[Signup]
[Recover Account]


Browse Torrents

Poll


You must be logged in to view polls



Latest Torrents
Bumblebee 2018.NEW...
- [Size: 1.35 GB]

Seth.Meyers.2018.1...
- [Size: 582.88 MB]

Seth.Meyers.2018.1...
- [Size: 586.13 MB]

Seth.Meyers.2018.1...
- [Size: 801.04 MB]

18+.What.Keeps.You...
- [Size: 1.10 GB]


Torrent Details For "Sugar Salt Ani Prem 2015 [MARATHI] 1080p Untouched WebHD x264 AAC [TMB]"

Sugar Salt Ani Prem 2015 [MARATHI] 1080p Untouched WebHD x264 AAC [TMB]

Download this torrent | Magnet Download
Health:
Seeds: 0
Leechers: 8
Completed:
Last Checked: 01-12-2017 15:16:56
External Torrent
Update Stats



Images Host

Poster


iMDB
Imdb Picture Title: Sugar Salt Ani Prem
Year: 2015
Runtime: 128 minutes
Votes: 6
Rating: 6.5/10
Language: Marathi
Country: India
All Genres: Drama
Plot Outline: Three women navigate their way through life and love.
Director: Sonali Bangera
Writing By: Sonali Bangera,Amjad Khan,Akash Waghmare,
Produced By: Sonali Bangera,Vikas Katyal,Vinay Nalavade,Hemant Panchal,
Music: Siddarth Mahadevan
Plot:

Three women navigate their way through life and love.

- Written by Kiran Mascarenhas
Cast:
Ajinkya Deo as Ajay
Sameer Dharmadhikari as Rahul
Sonali Kulkarni as Aditi
Prasad Oak as Ravindra
Kranti Redkar as Soumya
Shilpa Tulaskar as Ananya


Watch-Free-HD     Download

Details
Name:Sugar Salt Ani Prem 2015 [MARATHI] 1080p Untouched WebHD x264 AAC [TMB]
Description:
General
Complete name : Sugar Salt Ani Prem 2015 1080p Untouched WebHD x264 AAC [TMB].mkv
Format : Matroska
Format version : Version 4 / Version 2
File size : 1.97 GiB
Duration : 2 h 9 min
Overall bit rate : 2 167 kb/s

Video
Format : AVC
Format/Info : Advanced Video Codec
Format profile : [email protected]
Format settings, CABAC : Yes
Format settings, ReFrames : 3 frames
Codec ID : V_MPEG4/ISO/AVC
Duration : 2 h 9 min
Bit rate : 2 040 kb/s
Width : 1 920 pixels
Height : 1 080 pixels
Display aspect ratio : 16:9
Frame rate mode : Constant
Frame rate : 25.000 FPS
Color space : YUV
Chroma subsampling : 4:2:0
Bit depth : 8 bits
Scan type : Progressive
Bits/(Pixel*Frame) : 0.039
Stream size : 1.85 GiB (94%)

Audio
Format : AAC
Format/Info : Advanced Audio Codec
Format profile : LC
Codec ID : A_AAC
Duration : 2 h 9 min
Bit rate : 126 kb/s
Channel(s) : 2 channels
Channel positions : Front: L R
Sampling rate : 44.1 kHz
Frame rate : 43.066 FPS (1024 spf)
Compression mode : Lossy
Stream size : 117 MiB (6%)


Category:Movies > Bollywood
Lang:Marathi
Total Size:1.97 GB
Info Hash:0bb6df22ae22e7e8dae0555f4017a71361182ab4
Added By:Sarawan
Date Added:02-07-2017 14:24:03
Downloads:775

Ratings:Not Yet Rated (Log in to rate it)


Tracker:
udp://tracker.coppersurfer.tk:6969/announce


File List: 


Comments

No comments still posted

Top
Copyright 2018 DownloadHD -|- Page Generated In 0.331689 secs.
-|- RSS Feed -|- Feed Info
Marigolds by Eugenia Collier | TitanFall : notre avis sur la bĂȘta | 4,641,600 06:13 Selalu Ada Hanin Dhiya