Login
Username:
Password:
[Signup]
[Recover Account]


Browse Torrents

Poll


You must be logged in to view polls



Latest Torrents
Blood.UK.S01E01E02...
- [Size: 387.18 MB]

Hero No Zero 3 (Ma...
- [Size: 638.09 MB]

Chalbaaz (2018) Sa...
- [Size: 699.80 MB]

Bodhon [2017] Beng...
- [Size: 583.86 MB]

Munni Metric Pass ...
- [Size: 591.77 MB]


Torrent Details For "Scream 2000 720p Esub BluRay Dual Audio English Hindi GOPI SAHI"

Scream 2000 720p Esub BluRay Dual Audio English Hindi GOPI SAHI

Download this torrent | Magnet Download
Health:
Seeds: 0
Leechers: 2
Completed:
Last Checked: 14-07-2018 05:03:33
External Torrent
Update Stats



Images Host

Poster
No poster


iMDB
Imdb Picture Title: Scream 3
Year: 2000
Runtime: 116 minutes
Votes: 103777
Rating: 5.5/10
Language: English
Country: USA
All Genres: Horror, Mystery
Plot Outline: While Sidney and her friends visit the Hollywood set of Stab 3, the third film based on the Woodsboro murders, a new Ghostface begins to terrorize them once again.
Tagline: Someone has taken their love of trilogies one step too far.
Director: Wes Craven
Writing By: Kevin Williamson,Ehren Kruger,
Produced By: Daniel K. Arredondo,Stuart M. Besser,Dixie J. Capp,Cary Granat,Cathy Konrad,Marianne Maddalena,Nicholas Mastandrea,Julie Plec,Andrew Rona,Bob Weinstein,Harvey Weinstein,Kevin Williamson,
Music: Marco Beltrami
Plot:

A new film is currently in production, and a killer is on the loose. The murders draw a reporter, ex-cop, and young woman to the set of the movie inspired by their life. They soon find out that they are dealing with a trilogy, and in a trilogy...anything can happen.

- Written by mike

Sidney is hibernating in the woods, her whereabouts are unknown to everyone but Dewey. After a number of murders that seem to be related to the Woodsboro case take place on the set of Stab 3, Sid comes to Hollywood to be terrorized, find out more about her mother's death, and put together the final pieces of the Scream mystery.

- Written by <[email protected]>

In the final installment to this trilogy, a murdering spree begins to happen again; this time targeted toward the orginal Woodsboro survivors and those associated with the movie-inside a-movie, Stab 3. Sydney must face the demons of her past to stop the killer(s).

- Written by reese7

While "Stab 3" is in production, somebody in a ghost mask starts to murder the new cast members. This lures Sidney out from hiding deep in the woods where she lives, and she comes to Hollywood to face the killer for the final act.

- Written by T-2

While Sidney and her friends visit the Hollywood set of Stab 3, the third film based on the Woodsboro murders, a new Ghostface begins to terrorize them once again.

- Written by Moviedude346
Cast:
Liev Schreiber as Cotton Weary
Beth Toussaint as Female Caller
Roger Jackson as The Voice
Kelly Rutherford as Christine Hamilton
Neve Campbell as Sidney Prescott
Courteney Cox as Gale Weathers
Julie Janney as Moderator
Richmond Arquette as Student
Patrick Dempsey as Detective Mark Kincaid
Lynn McRee as Maureen Roberts Prescott


Watch-Free-HD     Download

Details
Name:Scream 2000 720p Esub BluRay Dual Audio English Hindi GOPI SAHI
Description:
Video
ID                             : 1
Format                         : AVC
Codec ID                       : V_MPEG4/ISO/AVC
Duration                       : 1 h 56 min
Bit rate                       : 740 kb/s
Width                          : 1 280 pixels
Height                         : 544 pixels
Display aspect ratio           : 2.35:1
Frame rate mode                : Constant
Frame rate                     : 23.976 (24000/1001) FPS
Stream size                    : 617 MiB (80%)
Writing library                : x264 core 116 r2074 2641b9e

Audio #1
Format                         : AAC
Duration                       : 1 h 50 min
Bit rate                       : 96.0 kb/s
Channel(s)                     : 6 channels
Channel positions              : Front: L C R, Side: L R, LFE
Sampling rate                  : 44.1 kHz
Frame rate                     : 43.066 FPS (1024 spf)
Stream size                    : 75.5 MiB (10%)
Language                       : Hindi

Audio #2
Format                         : AAC
Duration                       : 1 h 56 min
Bit rate                       : 88.4 kb/s
Channel(s)                     : 6 channels
Channel positions              : Front: L C R, Side: L R, LFE
Sampling rate                  : 44.1 kHz
Frame rate                     : 43.066 FPS (1024 spf)
Stream size                    : 73.7 MiB (10%)
Language                       : English

Text
Duration                       : 1 h 56 min
Stream size                    : 57.5 KiB (0%)
Language                       : English


Category:Movies > Hollywood Dub
Lang:Hindi
Total Size:768.39 MB
Info Hash:374a5b4c21af6ee47c70da36c57e30191926aa1b
Added By:gopisahi
Date Added:29-06-2017 19:35:20
Downloads:385

Ratings:Not Yet Rated (Log in to rate it)


Tracker:
udp://tracker.coppersurfer.tk:6969/announce


File List: 


Comments

No comments still posted

Top
Copyright 2018 DownloadHD -|- Page Generated In 0.664824 secs.
-|- RSS Feed -|- Feed Info
Pauschalreisen | Lagu White Snake Legend | Microsoft Xbox One S Console 500gb - White