Login
Username:
Password:
[Signup]
[Recover Account]


Browse Torrents

Poll


You must be logged in to view polls



Latest Torrents
Tosh.0.S10E20.WEB....
- [Size: 201.90 MB]

Tigers (2018) Hind...
- [Size: 698.80 MB]

Real.Country.S01E0...
- [Size: 579.76 MB]

Padmaavat.2018 72...
- [Size: 2.99 GB]

TMZ.on.TV.2018.11....
- [Size: 160.78 MB]


Torrent Details For "Kong.Skull.Island.(2017).1080p.BDRip.Multi.Audio.Org.BD.5.1.{Hindi+Eng+Tamil+Telugu}.-~{DJ DOOM..."

Kong.Skull.Island.(2017).1080p.BDRip.Multi.Audio.Org.BD.5.1.{Hindi+Eng+Tamil+Telugu}.-~{DJ DOOM...

Download this torrent | Magnet Download
Health:
Seeds: 0
Leechers: 336
Completed:
Last Checked: 11-07-2017 09:21:34
External Torrent
Update Stats



Images Host

Poster
No poster


Watch-Free-HD     Download

Details
Name:Kong.Skull.Island.(2017).1080p.BDRip.Multi.Audio.Org.BD.5.1.{Hindi+Eng+Tamil+Telugu}.-~{DJ DOOM...
Description:


Kong.Skull.Island.(2017).1080p.BDRip.Multi.Audio.Org.BD.5.1.{Hindi+Eng+Tamil+Telugu}.-~{[email protected]}~-



General

Unique ID                   : 241068332152095077942510195691645295517 (0xB55C126B8BC2BE2CB859CAB8AD8BDB9D)

Complete name               : Kong.Skull.Island.(2017).1080p.BDRip.Multi.Audio.Org.BD.5.1.{Hindi+Eng+Tamil+Telugu}.-~{[email protected]}~-.mkv

Format                      : Matroska

Format version              : Version 4 / Version 2

File size                   : 2.36 GiB

Duration                    : 1 h 58 min

Overall bit rate            : 2 853 kb/s

Movie name                  : Kong.Skull.Island.(2017).1080p.BDRip.Multi.Audio.Org.BD.5.1.{Hindi+Eng+Tamil+Telugu}.-~{[email protected]}~-

Encoded date                : UTC 2017-06-25 09:14:14

Writing application         : mkvmerge v8.6.1 ('Flying') 32bit

Writing library             : libebml v1.3.3 + libmatroska v1.4.4



Video

ID                          : 1

Format                      : AVC

Format/Info                 : Advanced Video Codec

Format profile              : [email protected]

Format settings, CABAC      : Yes

Format settings, ReFrames   : 4 frames

Codec ID                    : V_MPEG4/ISO/AVC

Duration                    : 1 h 58 min

Bit rate                    : 1 500 kb/s

Width                       : 1 280 pixels

Height                      : 536 pixels

Display aspect ratio        : 2.40:1

Frame rate mode             : Constant

Frame rate                  : 23.976 (23976/1000) FPS

Color space                 : YUV

Chroma subsampling          : 4:2:0

Bit depth                   : 8 bits

Scan type                   : Progressive

Bits/(Pixel*Frame)          : 0.091

Stream size                 : 1.24 GiB (53%)

Title                       : Kong.Skull.Island.(2017).1080p.BDRip.Multi.Audio.Org.BD.5.1.{Hindi+Eng+Tamil+Telugu}.-~{[email protected]}~-

Writing library             : x264 core 148 r2597M e86f3a1

Language                    : Hindi

Default                     : Yes

Forced                      : No



Audio #1

ID                          : 2

Format                      : AC-3

Format/Info                 : Audio Coding 3

Mode extension              : CM (complete main)

Format settings, Endianness : Big

Codec ID                    : A_AC3

Duration                    : 1 h 58 min

Bit rate mode               : Constant

Bit rate                    : 448 kb/s

Channel(s)                  : 6 channels

Channel positions           : Front: L C R, Side: L R, LFE

Sampling rate               : 48.0 kHz

Frame rate                  : 31.250 FPS (1536 spf)

Bit depth                   : 16 bits

Compression mode            : Lossy

Stream size                 : 379 MiB (16%)

Title                       : Org Bluray DD 5.1 448kbps - [email protected]

Language                    : Hindi

Default                     : Yes

Forced                      : No



Audio #2

ID                          : 3

Format                      : AC-3

Format/Info                 : Audio Coding 3

Mode extension              : CM (complete main)

Format settings, Endianness : Big

Codec ID                    : A_AC3

Duration                    : 1 h 58 min

Bit rate mode               : Constant

Bit rate                    : 448 kb/s

Channel(s)                  : 6 channels

Channel positions           : Front: L C R, Side: L R, LFE

Sampling rate               : 48.0 kHz

Frame rate                  : 31.250 FPS (1536 spf)

Bit depth                   : 16 bits

Compression mode            : Lossy

Stream size                 : 379 MiB (16%)

Title                       : Org Bluray DD 5.1 448kbps - [email protected]

Language                    : Tamil

Default                     : No

Forced                      : No



Audio #3

ID                          : 4

Format                      : AC-3

Format/Info                 : Audio Coding 3

Mode extension              : CM (complete main)

Format settings, Endianness : Big

Codec ID                    : A_AC3

Duration                    : 1 h 58 min

Bit rate mode               : Constant

Bit rate                    : 448 kb/s

Channel(s)                  : 6 channels

Channel positions           : Front: L C R, Side: L R, LFE

Sampling rate               : 48.0 kHz

Frame rate                  : 31.250 FPS (1536 spf)

Bit depth                   : 16 bits

Compression mode            : Lossy

Stream size                 : 379 MiB (16%)

Title                       : Org Bluray DD 5.1 448kbps - [email protected]

Language                    : Telugu

Default                     : No

Forced                      : No



Audio #4

ID                          : 8

Format                      : AC-3

Format/Info                 : Audio Coding 3

Mode extension              : CM (complete main)

Format settings, Endianness : Big

Codec ID                    : A_AC3

Duration                    : 58 s 375 ms

Bit rate mode               : Constant

Bit rate                    : 128 kb/s

Channel(s)                  : 2 channels

Channel positions           : Front: L R

Sampling rate               : 44.1 kHz

Frame rate                  : 28.711 FPS (1536 spf)

Bit depth                   : 16 bits

Compression mode            : Lossy

Stream size                 : 912 KiB (0%)

Title                       : Org DD 5.1 448kbps - [email protected]

Language                    : English

Default                     : No

Forced                      : No



Text #1

ID                          : 5

Format                      : PGS

Muxing mode                 : zlib

Codec ID                    : S_HDMV/PGS

Codec ID/Info               : Picture based subtitle format used on BDs/HD-DVDs

Duration                    : 1 h 54 min

Bit rate                    : 220 b/s

Count of elements           : 58

Stream size                 : 186 KiB (0%)

Title                       : ~(SDH)~

Language                    : Hindi

Default                     : Yes

Forced                      : No



Text #2

ID                          : 6

Format                      : PGS

Muxing mode                 : zlib

Codec ID                    : S_HDMV/PGS

Codec ID/Info               : Picture based subtitle format used on BDs/HD-DVDs

Duration                    : 1 h 54 min

Bit rate                    : 208 b/s

Count of elements           : 58

Stream size                 : 175 KiB (0%)

Title                       : ~(SDH)~

Language                    : Tamil

Default                     : No

Forced                      : No



Text #3

ID                          : 7

Format                      : PGS

Muxing mode                 : zlib

Codec ID                    : S_HDMV/PGS

Codec ID/Info               : Picture based subtitle format used on BDs/HD-DVDs

Duration                    : 1 h 54 min

Bit rate                    : 189 b/s

Count of elements           : 58

Stream size                 : 159 KiB (0%)

Title                       : ~(SDH)~

Language                    : Telugu

Default                     : No

Forced                      : No



Text #4

ID                          : 9

Format                      : VobSub

Muxing mode                 : zlib

Codec ID                    : S_VOBSUB

Codec ID/Info               : Picture based subtitle format used on DVDs

Duration                    : 1 h 58 min

Bit rate                    : 5 159 b/s

Count of elements           : 1530

Stream size                 : 4.36 MiB (0%)

Title                       : ~(SDH)~

Language                    : English

Default                     : No

Forced                      : No
Category:Movies > Hollywood Dub
Lang:Hindi
Total Size:2.37 GB
Info Hash:effd724cc1162a7748582e9d52eeacda361ec218
Added By:DOOMSDAY
Date Added:25-06-2017 15:12:31
Downloads:391

Ratings:Not Yet Rated (Log in to rate it)


Tracker:
udp://9.rarbg.to:2710/announce

This Torrent also has backup trackers
URLSeedersLeechersCompleted
http://torrent.gresille.org/announce000
http://tracker.aletorrenty.pl:2710/announce000


File List: 


Comments

<< Previous      Next >>
1 - 1

[Report] Posted: 26-06-2017 at 17:52:14
DOOMSDAY
♣ B૦ՐՈ T૦ H૯Նƿ ♣


Enjoy Quality Lovers B)

1 - 1
<< Previous      Next >>


Top
Copyright 2018 DownloadHD -|- Page Generated In 0.672881 secs.
-|- RSS Feed -|- Feed Info
ttt titel thesen temperamente | Gift box Custom Engraved Personalised Metal Pens wedding school gift Business | Barry Bostwick