Login
Username:
Password:
[Signup]
[Recover Account]


Browse Torrents

Poll


You must be logged in to view polls



Latest Torrents
James.Corden.2018....
- [Size: 627.02 MB]

Stephen.Colbert.20...
- [Size: 649.06 MB]

The.Domestics.2018...
- [Size: 705.94 MB]

Tell.Me.A.Story.US...
- [Size: 243.05 MB]

Neelakasham Pachak...
- [Size: 1.48 GB]


Torrent Details For "Maastigudi (2017) - Kannada - HDCAM - 720p - [DMU]"

Maastigudi (2017) - Kannada - HDCAM - 720p - [DMU]

Download this torrent | Magnet Download
Health:
Seeds: 0
Leechers: 912
Completed:
Last Checked: 18-06-2017 14:27:32
External Torrent
Update Stats



Images Host

Poster


Watch-Free-HD     Download

Details
Name:Maastigudi (2017) - Kannada - HDCAM - 720p - [DMU]
Description:
General
Complete name                            :Maastigudi (2017) - Kannada - HDCAM  - 720p - [DMU].mp4
Format                                   : MPEG-4
Format profile                           : Base Media / Version 2
Codec ID                                 : mp42 (mp42)
File size                                : 1.04 GiB
Duration                                 : 2 h 26 min
Overall bit rate                         : 1 020 kb/s
Codirector                               : codirector
Production studio                        : studio
ContentType                              : Unknown Type
Encoded date                             : UTC 2017-06-18 01:47:49
Tagged date                              : UTC 2017-06-18 01:47:49

Video
ID                                       : 1
Format                                   : AVC
Format/Info                              : Advanced Video Codec
Format profile                           : [email protected]
Format settings, CABAC                   : Yes
Format settings, ReFrames                : 2 frames
Format settings, GOP                     : M=3, N=25
Muxing mode                              : Container [email protected]
Codec ID                                 : avc1
Codec ID/Info                            : Advanced Video Coding
Duration                                 : 2 h 26 min
Bit rate                                 : 907 kb/s
Width                                    : 1 280 pixels
Height                                   : 544 pixels
Display aspect ratio                     : 2.35:1
Frame rate mode                          : Constant
Frame rate                               : 25.000 FPS
Color space                              : YUV
Chroma subsampling                       : 4:2:0
Bit depth                                : 8 bits
Scan type                                : Progressive
Bits/(Pixel*Frame)                       : 0.052
Stream size                              : 950 MiB (89%)
Language                                 : English

Audio
ID                                       : 2
Format                                   : AAC
Format/Info                              : Advanced Audio Codec
Format profile                           : LC
Codec ID                                 : 40
Duration                                 : 2 h 26 min
Bit rate mode                            : Constant
Bit rate                                 : 106 kb/s
Channel(s)                               : 2 channels
Channel positions                        : Front: L R
Sampling rate                            : 48.0 kHz
Frame rate                               : 46.875 FPS (1024 spf)
Compression mode                         : Lossy
Stream size                              : 111 MiB (10%)
Title                                    : Stereo
Language                                 : English
Default                                  : Yes
Alternate group                          : 1


Category:Movies > Bollywood
Lang:Kannada
Total Size:1.04 GB
Info Hash:9f6249d86cd6ec95334e86888d9392bb322c682d
Added By:Sarawan
Date Added:18-06-2017 14:27:20
Downloads:307

Ratings:Not Yet Rated (Log in to rate it)


Tracker:
udp://bt.firebit.co.uk:80/announce


File List: 


Comments

No comments still posted

Top
Copyright 2018 DownloadHD -|- Page Generated In 0.271088 secs.
-|- RSS Feed -|- Feed Info
Bookmark This Torrent | Post Malone & Swae Lee | Whose Line is it Anyway US S12E04 HDTV x264-BAJSKORV[ettv]