Login
Username:
Password:
[Signup]
[Recover Account]


Browse Torrents

Poll


You must be logged in to view polls



Latest Torrents
Van.Helsing.S03E07...
- [Size: 825.83 MB]

Van.Helsing.S03E07...
- [Size: 604.10 MB]

Master.of.Arms.S01...
- [Size: 983.73 MB]

Master.of.Arms.S01...
- [Size: 326.47 MB]

Z.Nation.S05E07.WE...
- [Size: 601.09 MB]


Torrent Details For "Masala 2012 [MARATHI] 1080p Untouched WebHD x264 AAC [TMB]"

Masala 2012 [MARATHI] 1080p Untouched WebHD x264 AAC [TMB]

Download this torrent | Magnet Download
Health:
Seeds: 0
Leechers: 2
Completed:
Last Checked: 09-09-2017 14:07:06
External Torrent
Update Stats



Images Host

Poster


Watch-Free-HD     Download

Details
Name:Masala 2012 [MARATHI] 1080p Untouched WebHD x264 AAC [TMB]
Description:
General
Complete name : Masala 2012 1080p Untouched WebHD x264 AAC [TMB].mp4
Format : MPEG-4
Format profile : Base Media
Codec ID : isom (isom/iso2/avc1/mp41)
File size : 3.59 GiB
Duration : 1 h 52 min
Overall bit rate mode : Variable
Overall bit rate : 4 566 kb/s
Writing application : Lavf56.40.101

Video
Format : AVC
Format/Info : Advanced Video Codec
Format profile : [email protected]
Format settings, CABAC : Yes
Format settings, ReFrames : 1 frame
Format settings, GOP : M=1, N=25
Codec ID : avc1
Codec ID/Info : Advanced Video Coding
Duration : 1 h 52 min
Bit rate mode : Constant
Bit rate : 4 500 kb/s
Width : 1 920 pixels
Height : 1 080 pixels
Display aspect ratio : 16:9
Frame rate mode : Constant
Frame rate : 25.000 FPS
Color space : YUV
Chroma subsampling : 4:2:0
Bit depth : 8 bits
Scan type : Progressive
Bits/(Pixel*Frame) : 0.087
Stream size : 3.54 GiB (99%)

Audio
Format : AAC
Format/Info : Advanced Audio Codec
Format profile : LC
Codec ID : 40
Duration : 1 h 52 min
Bit rate mode : Variable
Bit rate : 61.4 kb/s
Maximum bit rate : 63.8 kb/s
Channel(s) : 2 channels
Channel positions : Front: L R
Sampling rate : 48.0 kHz
Frame rate : 46.875 FPS (1024 spf)
Compression mode : Lossy
Stream size : 49.4 MiB (1%)








Category:Movies > Bollywood
Lang:Marathi
Total Size:3.59 GB
Info Hash:6350879e60d47830e5916629dae482e4212b2e22
Added By:Sarawan
Date Added:16-06-2017 20:10:43
Downloads:637

Ratings:Not Yet Rated (Log in to rate it)


Tracker:
udp://tracker.coppersurfer.tk:6969/announce


File List: 


Comments

No comments still posted

Top
Copyright 2018 DownloadHD -|- Page Generated In 0.021948 secs.
-|- RSS Feed -|- Feed Info
Vedi Prodotto | Fairtrade (2828) | Film terbaru 2017