Login
Username:
Password:
[Signup]
[Recover Account]


Browse Torrents

Poll


You must be logged in to view polls



Latest Torrents
Mom.S06E11.HDTV.x2...
- [Size: 142.47 MB]

Mom.S06E11.720p.HD...
- [Size: 496.39 MB]

Mom.S06E11.720p.HD...
- [Size: 529.14 MB]

Supernatural.S14E0...
- [Size: 149.74 MB]

The.Apprentice.UK....
- [Size: 806.65 MB]


Torrent Details For "X-Men First Class 2011 1080p BluRay x264 Dual Audio [Hindi DD 5.1 - English DD 5.1] ESub [MW]"

X-Men First Class 2011 1080p BluRay x264 Dual Audio [Hindi DD 5.1 - English DD 5.1] ESub [MW]

Download this torrent | Magnet Download
Health:
Seeds: 0
Leechers: 13
Completed: 448 
Last Checked: 30-09-2018 01:07:58
External Torrent
Update Stats



Images Host

Poster
No poster


Watch-Free-HD     Download

Details
Name:X-Men First Class 2011 1080p BluRay x264 Dual Audio [Hindi DD 5.1 - English DD 5.1] ESub [MW]
Description:

 


General
Format                                   : Matroska
Format version                           : Version 4 / Version 2
File size                                : 5.70 GiB
Duration                                 : 2 h 11 min
Overall bit rate                         : 6 197 kb/s

Video
ID                                       : 1
Format                                   : AVC
Format/Info                              : Advanced Video Codec
Format profile                           : [email protected]
Format settings                          : CABAC / 5 Ref Frames
Format settings, CABAC                   : Yes
Format settings, RefFrames               : 5 frames
Codec ID                                 : V_MPEG4/ISO/AVC
Duration                                 : 2 h 11 min
Bit rate                                 : 5 500 kb/s
Width                                    : 1 920 pixels
Height                                   : 816 pixels
Display aspect ratio                     : 2.35:1
Frame rate mode                          : Constant
Frame rate                               : 23.976 (24000/1001) FPS
Color space                              : YUV
Chroma subsampling                       : 4:2:0
Bit depth                                : 8 bits
Scan type                                : Progressive
Bits/(Pixel*Frame)                       : 0.146
Stream size                              : 4.93 GiB (87%)
Writing library                          : x264 core 155 r2893 b00bcaf
Default                                  : Yes
Forced                                   : No

Audio #1
ID                                       : 2
Format                                   : AC-3
Format/Info                              : Audio Coding 3
Codec ID                                 : A_AC3
Duration                                 : 2 h 11 min
Bit rate mode                            : Constant
Bit rate                                 : 448 kb/s
Channel(s)                               : 6 channels
Channel positions                        : Front: L C R, Side: L R, LFE
Sampling rate                            : 48.0 kHz
Frame rate                               : 31.250 FPS (1536 SPF)
Bit depth                                : 16 bits
Compression mode                         : Lossy
Stream size                              : 422 MiB (7%)
Language                                 : Hindi
Service kind                             : Complete Main
Default                                  : Yes
Forced                                   : Yes

Audio #2
ID                                       : 3
Format                                   : AC-3
Format/Info                              : Audio Coding 3
Codec ID                                 : A_AC3
Duration                                 : 2 h 11 min
Bit rate mode                            : Constant
Bit rate                                 : 384 kb/s
Channel(s)                               : 6 channels
Channel positions                        : Front: L C R, Side: L R, LFE
Sampling rate                            : 48.0 kHz
Frame rate                               : 31.250 FPS (1536 SPF)
Bit depth                                : 16 bits
Compression mode                         : Lossy
Stream size                              : 362 MiB (6%)
Language                                 : English
Service kind                             : Complete Main
Default                                  : No
Forced                                   : No

Text
ID                                       : 4
Format                                   : UTF-8
Codec ID                                 : S_TEXT/UTF8
Codec ID/Info                            : UTF-8 Plain Text
Duration                                 : 2 h 10 min
Bit rate                                 : 47 b/s
Count of elements                        : 1406
Stream size                              : 45.3 KiB (0%)
Default                                  : Yes
Forced                                   : No




               

Category:Movies > Hollywood Dub
Lang:Hindi
Total Size:5.70 GB
Info Hash:bf59eb006c5b75867a6271da848784d31cf0c510
Added By:Freaky
Date Added:03-05-2018 08:44:46
Downloads:192

Ratings:Not Yet Rated (Log in to rate it)


Tracker:
udp://tracker.pirateparty.gr:6969/announce


File List: 


Comments

No comments still posted

Top
Copyright 2018 DownloadHD -|- Page Generated In 4.678173 secs.
-|- RSS Feed -|- Feed Info
Unduh APK | עברית | Nourrisson Bébé Fille Garçon Père Noël Chapeau de Barboteuse Costume Déguisement