Login
Username:
Password:
[Signup]
[Recover Account]


Browse Torrents

Poll


You must be logged in to view polls



Latest Torrents
Jalebi The Taste o...
- [Size: 1.27 GB]

Stephen.Colbert.20...
- [Size: 648.64 MB]

Hum Saath Saath Ha...
- [Size: 1.67 GB]

Adam.Ruins.Everyth...
- [Size: 455.49 MB]

Brothers.in.Arms.S...
- [Size: 580.65 MB]


Torrent Details For "Primal Rage 2018 720p WEB-DL x264 ESub [MW]"

Primal Rage 2018 720p WEB-DL x264 ESub [MW]

Download this torrent | Magnet Download
Health:
Seeds: 6
Leechers: 0
Completed: 235 
Last Checked: 24-11-2018 12:26:52
External Torrent
Update Stats



Images Host

Poster
No poster


Watch-Free-HD     Download

Details
Name:Primal Rage 2018 720p WEB-DL x264 ESub [MW]
Description:

 


General
Format                                   : Matroska
Format version                           : Version 4 / Version 2
File size                                : 897 MiB
Duration                                 : 1 h 45 min
Overall bit rate                         : 1 187 kb/s

Video
ID                                       : 1
Format                                   : AVC
Format/Info                              : Advanced Video Codec
Format profile                           : [email protected]
Format settings                          : CABAC / 4 Ref Frames
Format settings, CABAC                   : Yes
Format settings, RefFrames               : 4 frames
Codec ID                                 : V_MPEG4/ISO/AVC
Duration                                 : 1 h 45 min
Bit rate                                 : 1 100 kb/s
Width                                    : 1 280 pixels
Height                                   : 540 pixels
Display aspect ratio                     : 2.40:1
Frame rate mode                          : Constant
Frame rate                               : 23.976 (24000/1001) FPS
Color space                              : YUV
Chroma subsampling                       : 4:2:0
Bit depth                                : 8 bits
Scan type                                : Progressive
Bits/(Pixel*Frame)                       : 0.066
Stream size                              : 824 MiB (92%)
Writing library                          : x264 core 155 r2893 b00bcaf
Default                                  : Yes
Forced                                   : No

Audio
ID                                       : 2
Format                                   : AAC
Format/Info                              : Advanced Audio Codec
Format profile                           : HE-AAC / LC
Format settings                          : Explicit
Codec ID                                 : A_AAC-2
Duration                                 : 1 h 45 min
Bit rate                                 : 96.0 kb/s
Channel(s)                               : 2 channels
Channel positions                        : Front: L R
Sampling rate                            : 48.0 kHz / 24.0 kHz
Frame rate                               : 23.438 FPS (1024 SPF)
Compression mode                         : Lossy
Stream size                              : 71.5 MiB (8%)
Language                                 : English
Default                                  : Yes
Forced                                   : No

Text
ID                                       : 3
Format                                   : UTF-8
Codec ID                                 : S_TEXT/UTF8
Codec ID/Info                            : UTF-8 Plain Text
Duration                                 : 1 h 33 min
Bit rate                                 : 29 b/s
Count of elements                        : 852
Stream size                              : 20.0 KiB (0%)
Language                                 : English
Default                                  : Yes
Forced                                   : No

Menu
00:00:00.000                             : en:1
00:02:58.053                             : en:2
00:12:38.007                             : en:3
00:23:12.057                             : en:4
00:33:46.066                             : en:5
00:44:36.007                             : en:6
00:54:15.043                             : en:7
01:03:25.010                             : en:8
01:16:00.014                             : en:9
01:25:27.039                             : en:10
01:33:43.076                             : en:11
01:42:02.033                             : en:12




           

Category:Movies > HDRips
Lang:English  English
Total Size:896.88 MB
Info Hash:24df47900ba3a96aa0724b57fcabc9fcf0f4c9eb
Added By:Freaky
Date Added:01-05-2018 17:43:01
Downloads:66

Ratings:Not Yet Rated (Log in to rate it)


Tracker:
udp://tracker.pirateparty.gr:6969/announce


File List: 


Comments

No comments still posted

Top
Copyright 2018 DownloadHD -|- Page Generated In 4.215968 secs.
-|- RSS Feed -|- Feed Info
Digital Cameras | Travelers | Nyuru Nyuru!! Kakusen-kun