Login
Username:
Password:
[Signup]
[Recover Account]


Browse Torrents

Poll


You must be logged in to view polls



Latest Torrents
Puzzle.2018.HDRip....
- [Size: 1.43 GB]

Puzzle.2018.HDRip....
- [Size: 1.34 GB]

Sui.Dhaaga.2018.Hi...
- [Size: 3.00 GB]

The Girl in the Sp...
- [Size: 972.81 MB]

Sally4Ever.S01E01....
- [Size: 195.91 MB]


Torrent Details For "Rama Rama Kya Hai Dramaaa (2008) DVDRip 720p Hindi H.264 AAC [Exclusive] - LatestHDMovies"

Rama Rama Kya Hai Dramaaa (2008) DVDRip 720p Hindi H.264 AAC [Exclusive] - LatestHDMovies

Download this torrent | Magnet Download
Health:
Seeds: 0
Leechers: 10
Completed: 622 
Last Checked: 17-05-2018 16:08:14
External Torrent
Update Stats



Images Host

Poster


iMDB
Imdb Picture Title: Rama Rama Kya Hai Dramaaa
Year: 2008
Votes: 209
Rating: 3.9/10
Language: Hindi, English
Country: India
All Genres: Comedy, Drama, Romance
Plot Outline: Two bank employees face problems after marrying very attractive women.
Director: Chandrakant Singh
Writing By: Chandrakant Singh,Mohammed Salim,
Produced By: Surendra Bhatia,Sudhir Kumar,Ranjan Prakash,Narsing Rajput,
Music: Suhash Kulkarni Siddhartth
Cast:
Neha Dhupia as Shanti S. Singh
Amrita Arora as Khushi
Anupam Kher as Vishwas Khurana
Rati Agnihotri as Shraddha V. Khurana
Rajpal Yadav as Santosh Singh
Aashish Chaudhary as Prem
Razak Khan as Abdul - Autorikshaw Driver
Sanjay Mishra as Mishra
Alan Kapoor as Vicky
Jiya Biswas as Shivani


Watch-Free-HD     Download

Details
Name:Rama Rama Kya Hai Dramaaa (2008) DVDRip 720p Hindi H.264 AAC [Exclusive] - LatestHDMovies
Description:




[[>>SAMPLE<<]]
 http://oload.stream/f/PvoohvH...estHDMovies.mp4-.mp4







General
Unique ID                   : 123288619396918837829692738647292179111 (0x5CC0863E6A1869E920623D8607FCF2A7)
Complete name               : C:\Users\SHAHID\Videos\Rama Rama Kya Hai Dramaaa (2008) DVDRip 720p Hindi H.264 AAC [Exclusive] - LatestHDMovies.mkv
Format                      : Matroska
Format version              : Version 4 / Version 2
File size                   : 1.37 GiB
Duration                    : 2 h 11 min
Overall bit rate            : 1 494 kb/s
Movie name                  : LatestHDMovies | TeamSHAHID
Encoded date                : UTC 2018-04-30 08:41:47
Writing application         : mkvmerge v21.0.0 ('Tardigrades Will Inherit The Earth') 32-bit
Writing library             : libebml v1.3.5 + libmatroska v1.4.8
Cover                       : Yes
Attachments                 : Cover.jpg

Video
ID                          : 1
Format                      : AVC
Format/Info                 : Advanced Video Codec
Format profile              : [email protected]
Format settings             : 3 Ref Frames
Format settings, CABAC      : No
Format settings, ReFrames   : 3 frames
Codec ID                    : V_MPEG4/ISO/AVC
Duration                    : 2 h 11 min
Bit rate                    : 1 400 kb/s
Width                       : 1 288 pixels
Height                      : 544 pixels
Display aspect ratio        : 2.35:1
Frame rate mode             : Constant
Frame rate                  : 23.976 (24000/1001) FPS
Color space                 : YUV
Chroma subsampling          : 4:2:0
Bit depth                   : 8 bits
Scan type                   : Progressive
Bits/(Pixel*Frame)          : 0.083
Stream size                 : 1.28 GiB (93%)
Title                       : LatestHDMovies - TeamSHAHID
Writing library             : x264 core 135
Encoding settings           : cabac=0 / ref=3 / deblock=1:0:0 / analyse=0x1:0x111 / me=hex / subme=7 / psy=1 / psy_rd=1.00:0.00 / mixed_ref=1 / me_range=16 / chroma_me=1 / trellis=1 / 8x8dct=0 / cqm=0 / deadzone=21,11 / fast_pskip=1 / chroma_qp_offset=-2 / threads=2 / lookahead_threads=1 / sliced_threads=0 / nr=0 / decimate=1 / interlaced=0 / bluray_compat=0 / constrained_intra=0 / bframes=0 / weightp=0 / keyint=50 / keyint_min=5 / scenecut=40 / intra_refresh=0 / rc_lookahead=40 / rc=abr / mbtree=1 / bitrate=1400 / ratetol=1.0 / qcomp=0.60 / qpmin=0 / qpmax=51 / qpstep=4 / ip_ratio=1.40 / aq=1:1.00
Language                    : Hindi
Default                     : Yes
Forced                      : No

Audio
ID                          : 2
Format                      : AAC
Format/Info                 : Advanced Audio Codec
Format profile              : LC
Codec ID                    : A_AAC-2
Duration                    : 2 h 11 min
Bit rate                    : 96.0 kb/s
Channel(s)                  : 2 channels
Channel positions           : Front: L R
Sampling rate               : 44.1 kHz
Frame rate                  : 43.066 FPS (1024 SPF)
Compression mode            : Lossy
Delay relative to video     : -36 ms
Stream size                 : 90.0 MiB (6%)
Title                       : LatestHDMovies - TeamSHAHID
Language                    : Hindi
Default                     : Yes
Forced                      : No



 
                       
Category:Movies > Bollywood
Lang:Hindi
Total Size:1.37 GB
Info Hash:35eee7f4be1dd2eaf9e717f80201ea7bcb4a7d84
Added By:LatestHDMovies
Date Added:30-04-2018 09:50:32
Downloads:683

Ratings:Not Yet Rated (Log in to rate it)


Tracker:
udp://tracker.openbittorrent.com:80/announce


File List: 


Comments

<< Previous      Next >>
1 - 1

[Report] Posted: 01-05-2018 at 08:17:52
Manish



Another Stunning Upload by Best Uploader.
You Won our hearts again bro.
Wooooooooooooooo......
Thanks a lot bro.

1 - 1
<< Previous      Next >>


Top
Copyright 2018 DownloadHD -|- Page Generated In 3.707715 secs.
-|- RSS Feed -|- Feed Info