Login
Username:
Password:
[Signup]
[Recover Account]


Browse Torrents

Poll


You must be logged in to view polls



Latest Torrents
Blood.UK.S01E01E02...
- [Size: 387.18 MB]

Hero No Zero 3 (Ma...
- [Size: 638.09 MB]

Chalbaaz (2018) Sa...
- [Size: 699.80 MB]

Bodhon [2017] Beng...
- [Size: 583.86 MB]

Munni Metric Pass ...
- [Size: 591.77 MB]


Torrent Details For "WWE Greatest Royal Rumble 2018 PPV WEB 720p H.264 AAC - LatestHDMovies"

WWE Greatest Royal Rumble 2018 PPV WEB 720p H.264 AAC - LatestHDMovies

Download this torrent | Magnet Download
Health:
Seeds: 0
Leechers: 2
Completed: 2,538 
Last Checked: 05-11-2018 11:35:55
External Torrent
Update Stats



Images Host

Poster


Watch-Free-HD     Download

Details
Name:WWE Greatest Royal Rumble 2018 PPV WEB 720p H.264 AAC - LatestHDMovies
Description:




[[>>SAMPLE<<]]
 http://oload.stream/f/O5rMTZt...vies_TeamSHAHID-.mp4







General
Unique ID                   : 272922731293669545065209937910795718525 (0xCD53018DD1C6F313B901BCE35DE1CF7D)
Complete name               : C:\Users\SHAHID\Downloads\Video\WWE Greatest Royal Rumble 2018 PPV WEB 720p H.264 AAC - LatestHDMovies.mkv
Format                      : Matroska
Format version              : Version 4 / Version 2
File size                   : 1.95 GiB
Duration                    : 5 h 0 min
Overall bit rate            : 931 kb/s
Movie name                  : LatestHMovies  TeamSHAHID
Encoded date                : UTC 2018-04-28 01:35:07
Writing application         : mkvmerge v21.0.0 ('Tardigrades Will Inherit The Earth') 32-bit
Writing library             : libebml v1.3.5 + libmatroska v1.4.8
Cover                       : Yes
Attachments                 : Cover.jpg

Video
ID                          : 1
Format                      : AVC
Format/Info                 : Advanced Video Codec
Format profile              : [email protected]
Format settings             : CABAC / 5 Ref Frames
Format settings, CABAC      : Yes
Format settings, ReFrames   : 5 frames
Codec ID                    : V_MPEG4/ISO/AVC
Duration                    : 5 h 0 min
Bit rate                    : 832 kb/s
Width                       : 896 pixels
Height                      : 504 pixels
Display aspect ratio        : 16:9
Frame rate mode             : Constant
Frame rate                  : 29.970 (30000/1001) FPS
Color space                 : YUV
Chroma subsampling          : 4:2:0
Bit depth                   : 8 bits
Scan type                   : Progressive
Bits/(Pixel*Frame)          : 0.061
Stream size                 : 1.75 GiB (90%)
Title                       : LatestHMovies - TeamSHAHID
Writing library             : x264 core 148 r2643 5c65704
Encoding settings           : cabac=1 / ref=5 / deblock=1:0:0 / analyse=0x3:0x113 / me=hex / subme=7 / psy=1 / psy_rd=1.00:0.00 / mixed_ref=1 / me_range=16 / chroma_me=1 / trellis=1 / 8x8dct=1 / cqm=0 / deadzone=21,11 / fast_pskip=1 / chroma_qp_offset=-2 / threads=8 / lookahead_threads=8 / sliced_threads=1 / slices=8 / nr=0 / decimate=1 / interlaced=0 / bluray_compat=0 / constrained_intra=0 / bframes=0 / weightp=2 / keyint=250 / keyint_min=25 / scenecut=40 / intra_refresh=0 / rc=abr / mbtree=0 / bitrate=832 / ratetol=1.0 / qcomp=0.60 / qpmin=0 / qpmax=69 / qpstep=4 / ip_ratio=1.40 / aq=1:1.00
Default                     : Yes
Forced                      : No

Audio
ID                          : 2
Format                      : AAC
Format/Info                 : Advanced Audio Codec
Format profile              : LC
Codec ID                    : A_AAC-2
Duration                    : 5 h 0 min
Bit rate                    : 93.5 kb/s
Channel(s)                  : 2 channels
Channel positions           : Front: L R
Sampling rate               : 48.0 kHz
Frame rate                  : 46.875 FPS (1024 SPF)
Compression mode            : Lossy
Stream size                 : 201 MiB (10%)
Title                       : LatestHMovies - TeamSHAHID
Language                    : English
Default                     : Yes
Forced                      : No



 
          
Category:TV > Sports
Lang:English  English
Total Size:1.95 GB
Info Hash:cd1f090693e6af99fc5597b980a6667207633fa6
Added By:LatestHDMovies
Date Added:28-04-2018 02:42:41
Downloads:568

Ratings:Not Yet Rated (Log in to rate it)


Tracker:
udp://tracker.openbittorrent.com:80/announce


File List: 


Comments

No comments still posted

Top
Copyright 2018 DownloadHD -|- Page Generated In 2.450088 secs.
-|- RSS Feed -|- Feed Info
Pandem Kodi 2 | Jonah Hill | Ballroom e Youkoso Episode 16