Login
Username:
Password:
[Signup]
[Recover Account]


Browse Torrents

Poll


You must be logged in to view polls



Latest Torrents
Nightflyers.S01E10...
- [Size: 744.79 MB]

Nightflyers.S01E10...
- [Size: 255.73 MB]

Nightflyers.S01E10...
- [Size: 250.16 MB]

Legacies.S01E07.72...
- [Size: 130.84 MB]

Murphy.Brown.S11E1...
- [Size: 148.61 MB]


Torrent Details For "Swades - We, the People (2004) Movie 720p AVC DD-5.1 Audio-HDprintMovies"

Swades - We, the People (2004) Movie 720p AVC DD-5.1 Audio-HDprintMovies

Download this torrent | Magnet Download
Health:
Seeds: 0
Leechers: 154
Completed:
Last Checked: 29-04-2018 16:00:44
External Torrent
Update Stats



Images Host

Poster


iMDB
Imdb Picture Original Title: Swades: We, the People
Title: Swades
Year: 2004
Runtime: 195 minutes
Votes: 69021
Rating: 8.3/10
Language: Hindi, English
Country: India
All Genres: Drama
Plot Outline: A successful Indian scientist returns to an Indian village to take his nanny to America with him and in the process rediscovers his roots.
Tagline: We, the people
Director: Ashutosh Gowariker
Writing By: M.G. Sathya,Ashutosh Gowariker,Ashutosh Gowariker,Sameer Sharma,Lalit Marathe,Amin Hajee,Charlotte Whitby-Coles,Yashodeep Nigudkar,Ayan Mukherjee,K.P. Saxena,
Produced By: Ashutosh Gowariker,Sunita Gowariker,Anadil Hossain,Deven Khote,Zarina Mehta,Srinivas Rao,Ronnie Screwvala,
Music: A.R. Rahman
Cast:
Shah Rukh Khan as Mohan Bhargava
Gayatri Joshi as Gita
Kishori Ballal as Kaveri amma
Smit Sheth as Chiku
Lekh Tandon as Dadaji - Freedom Fighter
Rajesh Vivek as Nivaran Dayal Shrivastav
Daya Shankar Pandey as Mela Ram
Farrukh Jaffar as Fatima Bi
Vishnudutt Gaur as
Raja Awasthi as


Watch-Free-HD     Download

Details
Name:Swades - We, the People (2004) Movie 720p AVC DD-5.1 Audio-HDprintMovies
Description:


General
Complete name                            : Swades - We, the People (2004) Movie 720p AVC DD-5.1 Audio-(Suman142).mp4
Format                                   : dash
Codec ID                                 : dash (iso6/mp41)
File size                                : 3.87 GiB
Duration                                 : 3 h 4 min
Overall bit rate                         : 3 002 kb/s
Encoded date                             : UTC 2018-04-19 20:50:17
Tagged date                              : UTC 2018-04-19 20:50:17

Video
ID                                       : 2
Format                                   : AVC
Format/Info                              : Advanced Video Codec
Format profile                           : [email protected]
Format settings                          : 1 Ref Frames
Format settings, CABAC                   : No
Format settings, RefFrames               : 1 frame
Format settings, GOP                     : M=1, N=13
Codec ID                                 : avc1
Codec ID/Info                            : Advanced Video Coding
Duration                                 : 3 h 4 min
Bit rate                                 : 2 807 kb/s
Width                                    : 1 280 pixels
Height                                   : 720 pixels
Display aspect ratio                     : 16:9
Frame rate mode                          : Constant
Frame rate                               : 25.000 FPS
Color space                              : YUV
Chroma subsampling                       : 4:2:0
Bit depth                                : 8 bits
Scan type                                : Progressive
Bits/(Pixel*Frame)                       : 0.122
Stream size                              : 3.62 GiB (94%)
Encoded date                             : UTC 2018-04-19 20:50:17
Tagged date                              : UTC 2018-04-19 20:50:17

Audio
ID                                       : 1
Format                                   : E-AC-3
Format/Info                              : Enhanced Audio Coding 3
Codec ID                                 : ec-3
Duration                                 : 3 h 4 min
Bit rate mode                            : Constant
Bit rate                                 : 192 kb/s
Channel(s)                               : 6 channels
Channel positions                        : Front: L C R, Side: L R, LFE
Sampling rate                            : 48.0 kHz
Frame rate                               : 187.500 FPS (256 SPF)
Bit depth                                : 16 bits
Compression mode                         : Lossy
Stream size                              : 253 MiB (6%)
Service kind                             : Complete Main
Encoded date                             : UTC 2018-04-19 20:50:17
Tagged date                              : UTC 2018-04-19 20:50:17











Category:Movies > Bollywood
Lang:Hindi
Total Size:3.87 GB
Info Hash:2792c4afe315071bdcecb4c935226e5c2b0ff374
Added By:suman142
Date Added:26-04-2018 10:33:32
Downloads:410

Ratings:Not Yet Rated (Log in to rate it)


Tracker:
udp://tracker.coppersurfer.tk:6969/announce

This Torrent also has backup trackers
URLSeedersLeechersCompleted
http://tracker.city9x.com:2710/announce040
ws://tracker.btsync.cf:2710/announce000
http://retracker.telecom.by:80/announce000
http://sandrotracker.biz:1337/announce000
http://retracker.mgts.by:80/announce030
http://0d.kebhana.mx:443/announce010
http://alpha.torrenttracker.nl:443/announce020
wss://tracker.openwebtorrent.com:443/announce000
wss://tracker.fastcast.nz:443/announce000
wss://tracker.btorrent.xyz:443/announce000
http://open.kickasstracker.com:443/announce040
http://open.acgnxtracker.com:443/announce010
http://torrent.nwps.ws:6969/announce040
http://retracker.spark-rostov.ru:80/announce000
http://retracker.bashtel.ru:80/announce000
http://open.kickasstracker.com:80/announce050
http://open.acgnxtracker.com:80/announce010
http://evening-badlands-6215.herokuapp.com:443/announce000
http://tracker2.itzmx.com:6961/announce030
http://tracker.vanitycore.co:6969/announce040
http://tracker.torrentyorg.pl:80/announce020
http://tracker.tfile.me:80/announce000
http://tracker.opentrackr.org:1337/announce000
http://tracker.mg64.net:6881/announce040
http://tracker.internetwarriors.net:1337/announce000
http://tracker.electro-torrent.pl:80/announce040
http://torrentsmd.me:8080/announce000
http://share.camoe.cn:8080/announce000
http://servandroidkino.ru:80/announce030
http://retracker.omsk.ru:2710/announce000
http://p4p.arenabg.com:1337/announce000
http://open.acgtracker.com:1096/announce020
http://omg.wtftrackr.pw:1337/announce000
http://mgtracker.org:6969/announce030
http://fxtt.ru:80/announce020
http://bt.dl1234.com:80/announce020
http://agusiq-torrents.pl:6969/announce030
http://104.238.198.186:8000/announc000
http://tracker.city9x.com:2710/announce040
http://retracker.telecom.by:80/announce000
http://sandrotracker.biz:1337/announce000
http://retracker.mgts.by:80/announce030
http://0d.kebhana.mx:443/announce010
http://alpha.torrenttracker.nl:443/announce020
http://torrent.nwps.ws:6969/announce040
http://retracker.spark-rostov.ru:80/announce000
http://retracker.bashtel.ru:80/announce000
http://open.kickasstracker.com:80/announce050
http://open.acgnxtracker.com:80/announce010
http://tracker2.itzmx.com:6961/announce030
http://tracker.vanitycore.co:6969/announce040
http://tracker.torrentyorg.pl:80/announce020
http://tracker.tfile.me:80/announce000
http://tracker.opentrackr.org:1337/announce000
http://tracker.mg64.net:6881/announce040
http://tracker.internetwarriors.net:1337/announce000
http://tracker.electro-torrent.pl:80/announce040
http://torrentsmd.me:8080/announce000
http://share.camoe.cn:8080/announce000
http://servandroidkino.ru:80/announce030
http://retracker.omsk.ru:2710/announce000
http://p4p.arenabg.com:1337/announce000
http://open.acgtracker.com:1096/announce020
http://omg.wtftrackr.pw:1337/announce000
http://mgtracker.org:6969/announce030
http://fxtt.ru:80/announce020
http://bt.dl1234.com:80/announce020
http://agusiq-torrents.pl:6969/announce030
http://104.238.198.186:8000/announce030
ws://tracker.btsync.cf:2710/announce000
wss://tracker.openwebtorrent.com:443/announce000
wss://tracker.fastcast.nz:443/announce000
wss://tracker.btorrent.xyz:443/announce000
http://opensharing.org:2710/announce000
http://announce.torrentsmd.com:8080/announce.php000
http://announce.torrentsmd.com:6969/announce000
http://bt.careland.com.cn:6969/announce000


File List: 


Comments

No comments still posted

Top
Copyright 2018 DownloadHD -|- Page Generated In 2.681000 secs.
-|- RSS Feed -|- Feed Info
Manuales y documentación | ダウンロード APK | Traditional Education - 1786 Words