Login
Username:
Password:
[Signup]
[Recover Account]


Browse Torrents

Poll


You must be logged in to view polls



Latest Torrents
Auslogics Anti-Mal...
- [Size: 8.10 MB]

AnyTrans for iOS 7...
- [Size: 80.62 MB]

Allavsoft Video Do...
- [Size: 31.93 MB]

Acronis Disk Direc...
- [Size: 494.26 MB]

The.Farm.2018.HDRi...
- [Size: 1.31 GB]


Torrent Details For "The.Humanity.Bureau.2017.720p.BluRay.x264.LLLG"

The.Humanity.Bureau.2017.720p.BluRay.x264.LLLG

Download this torrent | Magnet Download
Health:
Seeds: 0
Leechers: 4
Completed:
Last Checked: 25-04-2018 20:17:56
External Torrent
Update Stats



Images Host

Poster
No poster


iMDB
Imdb Picture Title: The Humanity Bureau
Year: 2017
Language: English
Country: Canada
All Genres: Action, Sci-Fi
Plot Outline: A dystopian thriller set in the year 2030 that sees the world in a permanent state of economic recession and facing serious environmental problems as a result of global warming.
Tagline: In the near future our government will decide who is expendable.
Director: Rob W. King
Writing By: Dave Schultz,
Produced By: Darren Benning,Jesse Bryant,Kelly-Rae Buchan,Ryan Carlsen,Travis Cloyd,Trish Cook,Benjamin DeWalt,Kevin DeWalt,Douglas Falconer,Wayne Marc Godfrey,Guy Griffithe,Andrew Holmes,Robert Jones,Benjamin Krause,Danielle Masters,Andre Relis,Frank White,Sharon Young,
Music: Todd Bryanton
Cast:
Nicolas Cage as Noah Kross
Hugh Dillon as Adam Westinghouse
Sarah Lind as
Vicellous Shannon as Agent Porter
Jakob Davies as Lucas Weller
Lorne Cardinal as Border Ranger
David Lovgren as Irving Ravetch
Jett Klyne as Little Noah
Leo Fafard as Motel Clerk
Kurt Max Runte as Adolf Schroder


Watch-Free-HD     Download

Details
Name:The.Humanity.Bureau.2017.720p.BluRay.x264.LLLG
Description:




******************************Thumbnail:**********************

 

******************************Screenshots:********************

 Screenshot 1

 Screenshot 2

 Screenshot 3

 Screenshot 4

 Screenshot 5

 Screenshot 6

 Screenshot 7

 Screenshot 8

 Screenshot 9

 Screenshot 0

**************************************************************

Complete name                            : The.Humanity.Bureau.2017.720p.BluRay.x264.LLG.mp4
Format                                   : MPEG-4
Format profile                           : Base Media
Codec ID                                 : isom (isom/iso2/avc1/mp41)
File size                                : 1.41 GiB
Duration                                 : 1 h 34 min
Overall bit rate                         : 2 132 kb/s
Writing application                      : Lavf57.56.101

Video
ID                                       : 1
Format                                   : AVC
Format/Info                              : Advanced Video Codec
Format profile                           : [email protected]
Format settings                          : CABAC / 4 Ref Frames
Format settings, CABAC                   : Yes
Format settings, RefFrames               : 4 frames
Codec ID                                 : avc1
Codec ID/Info                            : Advanced Video Coding
Duration                                 : 1 h 34 min
Bit rate                                 : 1 500 kb/s
Width                                    : 1 280 pixels
Height                                   : 536 pixels
Display aspect ratio                     : 2.40:1
Frame rate mode                          : Constant
Frame rate                               : 23.976 (23976/1000) FPS
Color space                              : YUV
Chroma subsampling                       : 4:2:0
Bit depth                                : 8 bits
Scan type                                : Progressive
Bits/(Pixel*Frame)                       : 0.091
Stream size                              : 1 003 MiB (70%)


Audio
ID                                       : 2
Format                                   : AC-3
Format/Info                              : Audio Coding 3
Codec ID                                 : ac-3
Duration                                 : 1 h 34 min
Bit rate mode                            : Constant
Bit rate                                 : 640 kb/s
Channel(s)                               : 6 channels
Channel positions                        : Front: L C R, Side: L R, LFE
Sampling rate                            : 48.0 kHz
Frame rate                               : 31.250 FPS (1536 SPF)
Bit depth                                : 16 bits
Compression mode                         : Lossy
Stream size                              : 432 MiB (30%)
Language                                 : English
Service kind                             : Complete Main
Category:Movies > 720P Bluray
Lang:English  English
Total Size:1.43 GB
Info Hash:795523f6c32651e23a4067007b288aa6d1f86306
Added By:LifeLongg
Date Added:25-04-2018 16:37:50
Downloads:64

Ratings:Not Yet Rated (Log in to rate it)


Tracker:
udp://tracker.openbittorrent.com:80/announce


File List: 


Comments

No comments still posted

Top
Copyright 2018 DownloadHD -|- Page Generated In 0.775427 secs.
-|- RSS Feed -|- Feed Info