Login
Username:
Password:
[Signup]
[Recover Account]


Browse Torrents

Poll


You must be logged in to view polls



Latest Torrents
5 Weddings (2018) ...
- [Size: 698.51 MB]

Crazy.Rich.Asians....
- [Size: 3.20 GB]

BigBoss.S12.Ep41.1...
- [Size: 3.50 GB]

Puzzle.2018.HDRip....
- [Size: 1.43 GB]

Puzzle.2018.HDRip....
- [Size: 1.34 GB]


Torrent Details For "The.Greatest.Showman.2017.720p.BluRay.x264-[Hindi.Org.BD.5.1-English.BD.5.1].FIRST_ON_NET~Exclu..."

The.Greatest.Showman.2017.720p.BluRay.x264-[Hindi.Org.BD.5.1-English.BD.5.1].FIRST_ON_NET~Exclu...

Download this torrent | Magnet Download
Health:
Seeds: 23
Leechers: 0
Completed: 111,136 
Last Checked: 10-11-2018 17:31:45
External Torrent
Update Stats



Images Host

Poster


iMDB
Imdb Picture Title: The Greatest Showman
Year: 2017
Runtime: 105 minutes
Votes: 20103
Rating: 8.0/10
Language: English
Country: USA
All Genres: Biography, Drama, Musical, Romance
Plot Outline: Inspired by the imagination of P.T. Barnum, The Greatest Showman is an original musical that celebrates the birth of show business and tells of a visionary who rose from nothing to create a spectacle that became a worldwide sensation.
Director: Michael Gracey
Writing By: Jenny Bicks,Bill Condon,Jenny Bicks,
Produced By: Peter Chernin,Tonia Davis,Deb Dyer,Peter Kohn,Donald J. Lee Jr.,James Mangold,Laurence Mark,Jenno Topping,
Music: John Debney Benj Pasek Justin Paul Joseph Trapanese
Cast:
Hugh Jackman as P.T. Barnum
Michelle Williams as Charity Barnum
Zac Efron as Phillip Carlyle
Zendaya as Anne Wheeler
Rebecca Ferguson as Jenny Lind
Austyn Johnson as Caroline Barnum
Cameron Seely as Helen Barnum
Keala Settle as Lettie Lutz
Sam Humphrey as Tom Thumb
Yahya Abdul-Mateen II as W.D. Wheeler
Trailers:
Official Trailer #2
Official Trailer


Watch-Free-HD     Download

Details
Name:The.Greatest.Showman.2017.720p.BluRay.x264-[Hindi.Org.BD.5.1-English.BD.5.1].FIRST_ON_NET~Exclu...
Description:
The Greatest Showman (2017) 720p BluRay x264-[Dual Audio] [Hindi Org BD 5.1-English BD 5.1] MSubs By~Hammer~

 
 
 


Format                                   : Matroska
File size                                : 3.23 GiB
Duration                                 : 1 h 44 min
Overall bit rate                         : 4 415 kb/s
Movie name                               : The Greatest Showman (2017) 1080p BluRay x264-[Dual Audio] [Hindi Org BD 5.1-English BD 5.1] MSubs By~Hammer~
Bit rate                                 : 3 500 kb/s
Width                                    : 1 280 pixels
Height                                   : 536 pixels
Display aspect ratio                     : 2.40:1
Frame rate mode                          : Constant
Frame rate                               : 23.976 (24000/1001) FPS
Title                                    : By~Hammer~
Default                                  : Yes

Audio #1
ID                                       : 2
Format                                   : AC-3
Format/Info                              : Audio Coding 3
Codec ID                                 : A_AC3
Duration                                 : 1 h 44 min
Bit rate mode                            : Constant
Bit rate                                 : 448 kb/s
Channel(s)                               : 6 channels
Channel positions                        : Front: L C R, Side: L R, LFE
Sampling rate                            : 48.0 kHz
Frame rate                               : 31.250 FPS (1536 SPF)
Bit depth                                : 16 bits
Compression mode                         : Lossy
Delay relative to video                  : -5 ms
Stream size                              : 336 MiB (10%)
Title                                    : Eng Org BD 5.1 448 kbps By~Hammer~
Language                                 : English
Default                                  : No

Audio #2
ID                                       : 4
Format                                   : AC-3
Format/Info                              : Audio Coding 3
Codec ID                                 : A_AC3
Duration                                 : 1 h 44 min
Bit rate mode                            : Constant
Bit rate                                 : 448 kb/s
Channel(s)                               : 6 channels
Channel positions                        : Front: L C R, Side: L R, LFE
Sampling rate                            : 48.0 kHz
Frame rate                               : 31.250 FPS (1536 SPF)
Bit depth                                : 16 bits
Compression mode                         : Lossy
Delay relative to video                  : -5 ms
Stream size                              : 336 MiB (10%)
Title                                    : Hindi Org BD 5.1 448 kbps By~Hammer~
Language                                 : Hindi
Default                                  : Yes

Text #1
ID                                       : 3
Format                                   : VobSub
Muxing mode                              : zlib
Codec ID                                 : S_VOBSUB
Codec ID/Info                            : Picture based subtitle format used on DVDs
Title                                    : Eng PGS
Language                                 : English
Default                                  : Yes
Forced                                   : No

Text #2
ID                                       : 5
Format                                   : PGS
Muxing mode                              : zlib
Codec ID                                 : S_HDMV/PGS
Codec ID/Info                            : Picture based subtitle format used on BDs/HD-DVDs
Title                                    : Hindi PGS
Default                                  : No
Forced                                   : No

 
 
 
 
 

 
Category:Movies > Hollywood Dub
Lang:Hindi
Total Size:3.23 GB
Info Hash:991b93e50de2cab73b68ad90e164c80114eefe8c
Added By:Anonymous
Date Added:23-04-2018 15:52:22
Downloads:861

Ratings:Not Yet Rated (Log in to rate it)


Tracker:
http://jiotorrents.net/announce.php?pk=b3f8f927ee1db7825e8fb8f05cf83bdb867b85ff


File List: 


Comments

<< Previous      Next >>
1 - 1

[Report] Posted: 24-04-2018 at 14:03:03
adildaiyan



:bad  :love  :warn  :bad  :bad  :bad  :bad  :bad  :bad  :bad  :bad

1 - 1
<< Previous      Next >>


Top
Copyright 2018 DownloadHD -|- Page Generated In 2.195069 secs.
-|- RSS Feed -|- Feed Info