Login
Username:
Password:
[Signup]
[Recover Account]


Browse Torrents

Poll


You must be logged in to view polls



Latest Torrents
Blood.UK.S01E01E02...
- [Size: 387.18 MB]

Hero No Zero 3 (Ma...
- [Size: 638.09 MB]

Chalbaaz (2018) Sa...
- [Size: 699.80 MB]

Bodhon [2017] Beng...
- [Size: 583.86 MB]

Munni Metric Pass ...
- [Size: 591.77 MB]


Torrent Details For "Hello (2017) Telugu True HDTV-Rip - 720p - x264 - AAC - 1.2GB - MovCR"

Hello (2017) Telugu True HDTV-Rip - 720p - x264 - AAC - 1.2GB - MovCR

Download this torrent | Magnet Download
Health:
Seeds: 0
Leechers: 2
Completed: 91 
Last Checked: 20-10-2018 07:58:53
External Torrent
Update Stats



Images Host

Poster


iMDB
Imdb Picture Title: Hello
Year: 2017
Runtime: 131 minutes
Votes: 298
Rating: 7.3/10
Language: Telugu
Country: India
All Genres: Action, Romance
Plot Outline: Avinash, in his childhood meets a girl and believes that she is his soul mate and patiently waits for her.
Director: Vikram K. Kumar
Writing By: Vikram K. Kumar,Mukund Pandey,
Produced By: Nagarjuna Akkineni,D. Supriya,
Music: Anoop Rubens
Cast:
Akhil Akkineni as Avinash
Kalyani Priyadarshan as Priya
Jagapathi Babu as Prakash
Ramya Krishnan as Saru
Ajay as Rishi
Mikhail Gandhi as Seenu
Praveen as Uber Driver
Vennela Kishore as Groom
Satya Krishnan as Priya's mom
Krishnudu as Food Vendor


Watch-Free-HD     Download

Details
Name:Hello (2017) Telugu True HDTV-Rip - 720p - x264 - AAC - 1.2GB - MovCR
Description:
Visit    www.movcr.com


Hello (2017) Telugu True HDTV-Rip - 720p - x264 - AAC - 1.2GB - MovCR

 http://www.imdb.com/title/tt6816070/

 

General
Unique ID                   : 294454796086393847934437447125869611682 (0xDD85EE4FCC501E86A20A36B544B14AA2)
Complete name               : www.MovCR.com - Hello (2017) Telugu True HDTV-Rip - 720p - x264 - AAC - 1.2GB - MovCR.mkv
Format                      : Matroska
Format version              : Version 4 / Version 2
File size                   : 1.27 GiB
Duration                    : 1 h 57 min
Overall bit rate            : 1 549 kb/s
Movie name                  : www.MovCR.com
Encoded date                : UTC 2018-04-22 17:45:02
Writing application         : mkvmerge v21.0.0 ('Tardigrades Will Inherit The Earth') 64-bit
Writing library             : libebml v1.3.5 + libmatroska v1.4.8

Video
ID                          : 1
Format                      : AVC
Format/Info                 : Advanced Video Codec
Format profile              : [email protected]
Format settings, CABAC      : Yes
Format settings, ReFrames   : 4 frames
Codec ID                    : V_MPEG4/ISO/AVC
Duration                    : 1 h 57 min
Bit rate                    : 1 419 kb/s
Width                       : 1 280 pixels
Height                      : 544 pixels
Display aspect ratio        : 2.35:1
Frame rate mode             : Variable
Frame rate                  : 24.074 FPS
Color space                 : YUV
Chroma subsampling          : 4:2:0
Bit depth                   : 8 bits
Scan type                   : Progressive
Bits/(Pixel*Frame)          : 0.085
Stream size                 : 1.16 GiB (92%)
Title                       : www.MovCR.com
Writing library             : x264 core 112
Encoding settings           : cabac=1 / ref=2 / deblock=1:0:0 / analyse=0x1:0x111 / me=hex / subme=6 / psy=1 / psy_rd=1.00:0.00 / mixed_ref=0 / me_range=16 / chroma_me=1 / trellis=0 / 8x8dct=0 / cqm=0 / deadzone=21,11 / fast_pskip=1 / chroma_qp_offset=-2 / threads=12 / sliced_threads=0 / nr=0 / decimate=1 / interlaced=0 / constrained_intra=0 / bframes=2 / b_pyramid=2 / b_adapt=1 / b_bias=0 / direct=1 / weightb=0 / open_gop=0 / weightp=2 / keyint=250 / keyint_min=25 / scenecut=40 / intra_refresh=0 / rc_lookahead=40 / rc=abr / mbtree=1 / bitrate=1419 / ratetol=1.0 / qcomp=0.60 / qpmin=3 / qpmax=51 / qpstep=4 / ip_ratio=1.40 / aq=1:1.00
Language                    : Telugu
Default                     : Yes
Forced                      : No
Color range                 : Limited
Color primaries             : BT.709
Transfer characteristics    : BT.709
Matrix coefficients         : BT.709

Audio
ID                          : 2
Format                      : AAC
Format/Info                 : Advanced Audio Codec
Format profile              : LC
Codec ID                    : A_AAC
Duration                    : 1 h 57 min
Bit rate                    : 128 kb/s
Channel(s)                  : 2 channels
Channel positions           : Front: L R
Sampling rate               : 48.0 kHz
Frame rate                  : 46.875 FPS (1024 spf)
Compression mode            : Lossy
Stream size                 : 107 MiB (8%)
Title                       : www.MovCR.com
Language                    : Telugu
Default                     : Yes
Forced                      : No



 
 
 
 
 
 
 
Category:Movies > Telugu
Lang:Telugu
Total Size:1.27 GB
Info Hash:fb13278d0b2c6c63207d235160bdd285c49160a7
Added By:Kingmaker
Date Added:22-04-2018 18:55:38
Downloads:263

Ratings:Not Yet Rated (Log in to rate it)


Tracker:
udp://tracker.openbittorrent.com:80/announce

This Torrent also has backup trackers
URLSeedersLeechersCompleted
http://t.nyaatracker.com:80/announce245
http://asnet.pw:2710/announce000
http://tracker.tfile.co:80/announce000
http://pt.lax.mx:80/announce000
http://tracker.bt-hash.com:443/announce000
http://grifon.info:80/announce000
http://retracker.spark-rostov.ru:80/announce000
http://tr.kxmp.cf:80/announce000
http://tracker.city9x.com:2710/announce0028
http://tracker.tfile.me:80/announce000
http://retracker.telecom.by:80/announce000
http://tracker.electro-torrent.pl:80/announce322
http://open.kickasstracker.com:443/announce735
http://retracker.mgts.by:80/announce0018
http://retracker.bashtel.ru:80/announce000
http://tracker.devil-torrents.pl:80/announce000
http://torrentsmd.eu:8080/announce000
http://ns349743.ip-91-121-106.eu:80/announce000
http://torrentsmd.me:8080/announce000
http://agusiq-torrents.pl:6969/announce212
http://fxtt.ru:80/announce000


File List: 


Comments

No comments still posted

Top
Copyright 2018 DownloadHD -|- Page Generated In 1.207356 secs.
-|- RSS Feed -|- Feed Info
Abenteuer auf der Luna | Mathematics | black lightning s02e05 internal 720p web h264-bamboozle[eztv]