Login
Username:
Password:
[Signup]
[Recover Account]


Browse Torrents

Poll


You must be logged in to view polls



Latest Torrents
The.Conners.S01E08...
- [Size: 1.08 GB]

The.Voice.S15E24.X...
- [Size: 799.40 MB]

The.Voice.S15E24.W...
- [Size: 602.93 MB]

The.Voice.S15E24.7...
- [Size: 824.34 MB]

The.Voice.S15E24.W...
- [Size: 600.73 MB]


Torrent Details For "Peter.Rabbit.2018.720p.BRRip.AAC.LLG"

Peter.Rabbit.2018.720p.BRRip.AAC.LLG

Download this torrent | Magnet Download
Health:
Seeds: 0
Leechers: 1
Completed:
Last Checked: 20-04-2018 15:31:11
External Torrent
Update Stats



Images Host

Poster
No poster


iMDB
Imdb Picture Original Title: Peter Rabbit
Title: Pierre Lapin
Year: 2018
Runtime: 95 minutes
Votes: 5072
Rating: 6.5/10
Language: English
Country: Australia, USA
All Genres: Animation, Adventure, Comedy, Family, Fantasy
Plot Outline: Feature adaptation of Beatrix Potter's classic tale of a rebellious rabbit trying to sneak into a farmer's vegetable garden.
Tagline: Born to be wild.
Director: Will Gluck
Writing By: Rob Lieber,Will Gluck,Rob Lieber,Will Gluck,Beatrix Potter,
Produced By: Jason Bath,Doug Belgrad,Catherine Bishop,Susan Bolsover,Monette Dubin,Christian Gazal,Will Gluck,Jodi Hildebrand,Jonathan Hludzinski,Rob Lieber,Jason Lust,Brian Lynch,Zareh Nalbandian,Felicity Staunton,Emma Topping,
Music: Dominic Lewis
Cast:
James Corden as Peter Rabbit
Fayssal Bazzi as Mr. Tod
Domhnall Gleeson as Mr. Jeremy Fisher / Mr. Thomas McGregor
Sia as Mrs. Tiggy-Winkle
Colin Moody as Benjamin Bunny
Sam Neill as Old Mr. McGregor / Tommy Brock
Margot Robbie as Flopsy / The Narrator
Elizabeth Debicki as Mopsy
Daisy Ridley as Cotton-Tail
Rose Byrne as Bea / Jemima Puddle-Duck
Trailers:
Trailer #2
UK Trailer
Trailer #1


Watch-Free-HD     Download

Details
Name:Peter.Rabbit.2018.720p.BRRip.AAC.LLG
Description:




******************************Thumbnail:**********************

 

******************************Screenshots:********************

 Screenshot 1

 Screenshot 2

 Screenshot 3

 Screenshot 4

 Screenshot 5

 Screenshot 6

 Screenshot 7

 Screenshot 8

 Screenshot 9

 Screenshot 0

**************************************************************

Complete name                            : Peter.Rabbit.2018.720p.BRRip.AAC.LLG.mp4
Format                                   : MPEG-4
Format profile                           : Base Media
Codec ID                                 : isom (isom/iso2/avc1/mp41)
File size                                : 819 MiB
Duration                                 : 1 h 34 min
Overall bit rate                         : 1 209 kb/s
Writing application                      : Lavf57.56.101

Video
ID                                       : 1
Format                                   : AVC
Format/Info                              : Advanced Video Codec
Format profile                           : [email protected]
Format settings                          : CABAC / 4 Ref Frames
Format settings, CABAC                   : Yes
Format settings, RefFrames               : 4 frames
Codec ID                                 : avc1
Codec ID/Info                            : Advanced Video Coding
Duration                                 : 1 h 34 min
Bit rate                                 : 1 139 kb/s
Nominal bit rate                         : 1 200 kb/s
Width                                    : 1 280 pixels
Height                                   : 534 pixels
Display aspect ratio                     : 2.40:1
Frame rate mode                          : Constant
Frame rate                               : 23.976 (23976/1000) FPS
Color space                              : YUV
Chroma subsampling                       : 4:2:0
Bit depth                                : 8 bits
Scan type                                : Progressive
Bits/(Pixel*Frame)                       : 0.069
Stream size                              : 771 MiB (94%)

Audio
ID                                       : 2
Format                                   : AAC
Format/Info                              : Advanced Audio Codec
Format profile                           : LC
Codec ID                                 : mp4a-40-2
Duration                                 : 1 h 34 min
Bit rate mode                            : Constant
Bit rate                                 : 64.7 kb/s
Channel(s)                               : 2 channels
Channel positions                        : Front: L R
Sampling rate                            : 48.0 kHz
Frame rate                               : 46.875 FPS (1024 SPF)
Compression mode                         : Lossy
Stream size                              : 43.8 MiB (5%)
Language                                 : English
Default                                  : Yes
Alternate group                          : 1



Category:Movies > 720P Bluray
Lang:English  English
Total Size:827.26 MB
Info Hash:6c857c7aeca4988797e998d78afcf50c38667ca3
Added By:LifeLongg
Date Added:20-04-2018 15:29:22
Downloads:78

Ratings:Not Yet Rated (Log in to rate it)


Tracker:
udp://tracker.openbittorrent.com:80/announce


File List: 


Comments

No comments still posted

Top
Copyright 2018 DownloadHD -|- Page Generated In 1.142590 secs.
-|- RSS Feed -|- Feed Info
Ultra 4K Full HD 1080P Waterproof Sport Camera WiFi Action Camcorder as Go Pro | Elisabeth Shu... | Chinatown