Login
Username:
Password:
[Signup]
[Recover Account]


Browse Torrents

Poll


You must be logged in to view polls



Latest Torrents
WWE Smackdown Live...
- [Size: 725.36 MB]

Nocturnal Animals ...
- [Size: 4.99 GB]

Tosh.0.S10E20.WEB....
- [Size: 201.90 MB]

Tigers (2018) Hind...
- [Size: 698.80 MB]

Real.Country.S01E0...
- [Size: 579.76 MB]


Torrent Details For "18+.Backstabbing.For.Beginners.2018.720p.BluRay.H264.AAC.LLG"

18+.Backstabbing.For.Beginners.2018.720p.BluRay.H264.AAC.LLG

Download this torrent | Magnet Download
Health:
Seeds: 0
Leechers: 4
Completed:
Last Checked: 20-04-2018 15:32:10
External Torrent
Update Stats



Images Host

Poster
No poster


iMDB
Imdb Picture Title: Backstabbing for Beginners
Year: 2018
Runtime: 108 minutes
Votes: 143
Rating: 6.1/10
Language: English
Country: Denmark, Canada, USA
All Genres: Drama, History, Thriller
Plot Outline: A young program coordinator at the United Nations stumbles upon a conspiracy involving Iraq's oil reserves.
Director: Per Fly
Writing By: Per Fly,Daniel Pyne,Michael Soussan,
Produced By: Pete Abrahams,Aaron Barnett,Robert Ogden Barnum,Daniel Bekerman,Malene Blenkov,Amy BonFleur,Stephen Bowen,Joel Burch,Andrew Corkin,Caroline Steenberg Dam,Karim Debbagh,Michael Dreher,Mark Gingras,Wes Jones,Jeff Kalligheri,Lars Knudsen,Mike Landry,Ethan Lazar,Ole Christian Madsen,Nikolaj Vibe Michelsen,Patrick Ryborn,Gregory P. Shockro,Adam Skomorowski,Jay Van Hoy,
Music: Todor Kobakov
Cast:
Theo James as Michael
Ben Kingsley as Pasha
Jacqueline Bisset as Christina Dupre
Rossif Sutherland as Trevor
Rachel Wilson as Lily
Brian Markinson as Rasnetsov
Belçim Bilgin as Nashim
Shauna MacDonald as Reporter
Daniela Lavender as Ruth
Aidan Devine as Justin Cutter
Trailers:
Backstabbing for Beginners


Watch-Free-HD     Download

Details
Name:18+.Backstabbing.For.Beginners.2018.720p.BluRay.H264.AAC.LLG
Description:




******************************Thumbnail:**********************

 

******************************Screenshots:********************

 Screenshot 1

 Screenshot 2

 Screenshot 3

 Screenshot 4

 Screenshot 5

 Screenshot 6

 Screenshot 7

 Screenshot 8

 Screenshot 9

 Screenshot 0

**************************************************************

Complete name                            : 18+.Backstabbing.For.Beginners.2018.720p.BluRay.H264.AAC.LLG.mp4
Format                                   : MPEG-4
Format profile                           : Base Media
Codec ID                                 : isom (isom/iso2/avc1/mp41)
File size                                : 1.00 GiB
Duration                                 : 1 h 48 min
Overall bit rate mode                    : Variable
Overall bit rate                         : 1 327 kb/s
Writing application                      : Lavf57.56.101

Video
ID                                       : 1
Format                                   : AVC
Format/Info                              : Advanced Video Codec
Format profile                           : [email protected]
Format settings                          : CABAC / 4 Ref Frames
Format settings, CABAC                   : Yes
Format settings, RefFrames               : 4 frames
Codec ID                                 : avc1
Codec ID/Info                            : Advanced Video Coding
Duration                                 : 1 h 48 min
Bit rate                                 : 1 200 kb/s
Width                                    : 1 280 pixels
Height                                   : 536 pixels
Display aspect ratio                     : 2.40:1
Frame rate mode                          : Constant
Frame rate                               : 23.976 (23976/1000) FPS
Color space                              : YUV
Chroma subsampling                       : 4:2:0
Bit depth                                : 8 bits
Scan type                                : Progressive
Bits/(Pixel*Frame)                       : 0.073
Stream size                              : 924 MiB (90%)

Audio
ID                                       : 2
Format                                   : AAC
Format/Info                              : Advanced Audio Codec
Format profile                           : LC
Codec ID                                 : mp4a-40-2
Duration                                 : 1 h 48 min
Bit rate mode                            : Variable
Bit rate                                 : 128 kb/s
Channel(s)                               : 2 channels
Channel(s)_Original                      : 6 channels
Channel positions                        : Front: L C R, Side: L R, LFE
Sampling rate                            : 48.0 kHz
Frame rate                               : 46.875 FPS (1024 SPF)
Compression mode                         : Lossy
Stream size                              : 98.6 MiB (10%)
Default                                  : Yes
Alternate group                          : 1

Category:Movies > 720P Bluray
Lang:English  English
Total Size:1.02 GB
Info Hash:34c693e56efaf39881822b146223024bb3d1435e
Added By:LifeLongg
Date Added:20-04-2018 15:09:42
Downloads:267

Ratings:Not Yet Rated (Log in to rate it)


Tracker:
udp://tracker.openbittorrent.com:80/announce


File List: 


Comments

No comments still posted

Top
Copyright 2018 DownloadHD -|- Page Generated In 0.766692 secs.
-|- RSS Feed -|- Feed Info
MEMENTO DEW DROP INK PAD - TSUKINEKO - 36 colours | Kookboeken & Gastronomie | DIMENSION