Login
Username:
Password:
[Signup]
[Recover Account]


Browse Torrents

Poll


You must be logged in to view polls



Latest Torrents
Blood.UK.S01E01E02...
- [Size: 387.18 MB]

Hero No Zero 3 (Ma...
- [Size: 638.09 MB]

Chalbaaz (2018) Sa...
- [Size: 699.80 MB]

Bodhon [2017] Beng...
- [Size: 583.86 MB]

Munni Metric Pass ...
- [Size: 591.77 MB]


Torrent Details For "Vijay (1988) Movie 720p h264 AAC Audio-HDprintMovies"

Vijay (1988) Movie 720p h264 AAC Audio-HDprintMovies

Download this torrent | Magnet Download
Health:
Seeds: 0
Leechers: 25
Completed: 61 
Last Checked: 30-08-2018 06:25:03
External Torrent
Update Stats



Images Host

Poster


iMDB
Imdb Picture Title: Vijay
Year: 1988
Runtime: 172 minutes
Votes: 153
Rating: 5.7/10
Language: Hindi
Country: India
All Genres: Action, Drama, Romance
Plot Outline: Vijay is a story about people that are bound by relationships of love and friendship and how they become foes and take up weapons against each other.
Director: Yash Chopra

Produced By: Yash Chopra,
Music: Hariprasad Chaurasia Shiv Kumar Sharma
Cast:
Anil Kapoor as Arjun I. Gujral / Arjun S. Bhalla
Rajesh Khanna as Ajit Bhardwaj
Rishi Kapoor as Vikram A. Bhardwaj
Hema Malini as Suman Y. Bhalla / Suman A. Bhardwaj
Meenakshi Sheshadri as Sapna
Anupam Kher as Lala Yodhraj Bhalla
Sonam as Nisha
Raj Babbar as Shashiraj Y. Bhalla
Moushumi Chatterjee as Rita
Gulshan Grover as Ujaagar Singh
Trailers:
Trailer


Watch-Free-HD     Download

Details
Name:Vijay (1988) Movie 720p h264 AAC Audio-HDprintMovies
Description:


General
Unique ID                                : 292939242349604635750281486501190985919 (0xDC620BBE508DC9E3DCAEEDAD826668BF)
Complete name                            : E:\MOVIE\Vijay (1988) Movie 720p x264 AAC Audio-Suman142.mkv
Format                                   : Matroska
Format version                           : Version 4 / Version 2
File size                                : 1.50 GiB
Duration                                 : 2 h 45 min
Overall bit rate                         : 1 295 kb/s
Encoded date                             : UTC 2018-04-19 04:33:07
Writing application                      : mkvmerge v21.0.0  64-bit
Writing library                          : libebml v1.3.5 + libmatroska v1.4.8

Video
ID                                       : 1
Format                                   : AVC
Format/Info                              : Advanced Video Codec
Format profile                           : [email protected]
Format settings                          : CABAC / 4 Ref Frames
Format settings, CABAC                   : Yes
Format settings, RefFrames               : 4 frames
Format settings, GOP                     : M=3, N=25
Codec ID                                 : V_MPEG4/ISO/AVC
Duration                                 : 2 h 45 min
Bit rate                                 : 1 197 kb/s
Width                                    : 1 280 pixels
Height                                   : 720 pixels
Display aspect ratio                     : 16:9
Frame rate mode                          : Constant
Frame rate                               : 25.000 FPS
Color space                              : YUV
Chroma subsampling                       : 4:2:0
Bit depth                                : 8 bits
Scan type                                : Progressive
Bits/(Pixel*Frame)                       : 0.052
Stream size                              : 1.38 GiB (92%)
Title                                    : Encoded By Suman142
Writing library                          : Zencoder Video Encoding System
Language                                 : Hindi
Default                                  : Yes
Forced                                   : No
Color range                              : Limited
Color primaries                          : BT.709
Transfer characteristics                 : BT.709
Matrix coefficients                      : BT.709

Audio
ID                                       : 2
Format                                   : AAC
Format/Info                              : Advanced Audio Codec
Format profile                           : LC
Codec ID                                 : A_AAC-2
Duration                                 : 2 h 45 min
Bit rate                                 : 96.0 kb/s
Channel(s)                               : 2 channels
Channel positions                        : Front: L R
Sampling rate                            : 48.0 kHz
Frame rate                               : 46.875 FPS (1024 SPF)
Compression mode                         : Lossy
Stream size                              : 113 MiB (7%)
Language                                 : Hindi
Default                                  : Yes
Forced                                   : No












Category:Movies > Bollywood
Lang:Hindi
Total Size:1.50 GB
Info Hash:7156bc472927a763a3b6a1bb90fa3aff93d7376c
Added By:suman142
Date Added:19-04-2018 05:47:22
Downloads:557

Ratings:Not Yet Rated (Log in to rate it)


Tracker:
udp://tracker.coppersurfer.tk:6969/announce

This Torrent also has backup trackers
URLSeedersLeechersCompleted
http://tracker.city9x.com:2710/announce0117
ws://tracker.btsync.cf:2710/announce000
http://retracker.telecom.by:80/announce000
http://sandrotracker.biz:1337/announce000
http://retracker.mgts.by:80/announce1170
http://0d.kebhana.mx:443/announce050
http://alpha.torrenttracker.nl:443/announce060
wss://tracker.openwebtorrent.com:443/announce000
wss://tracker.fastcast.nz:443/announce000
wss://tracker.btorrent.xyz:443/announce000
http://open.kickasstracker.com:443/announce1170
http://open.acgnxtracker.com:443/announce010
http://torrent.nwps.ws:6969/announce1170
http://retracker.spark-rostov.ru:80/announce000
http://retracker.bashtel.ru:80/announce000
http://open.kickasstracker.com:80/announce1170
http://open.acgnxtracker.com:80/announce0124
http://evening-badlands-6215.herokuapp.com:443/announce000
http://tracker2.itzmx.com:6961/announce070
http://tracker.vanitycore.co:6969/announce010
http://tracker.torrentyorg.pl:80/announce010
http://tracker.tfile.me:80/announce100
http://tracker.opentrackr.org:1337/announce000
http://tracker.mg64.net:6881/announce2170
http://tracker.internetwarriors.net:1337/announce000
http://tracker.electro-torrent.pl:80/announce090
http://torrentsmd.me:8080/announce000
http://share.camoe.cn:8080/announce000
http://servandroidkino.ru:80/announce090
http://retracker.omsk.ru:2710/announce000
http://p4p.arenabg.com:1337/announce000
http://open.acgtracker.com:1096/announce090
http://omg.wtftrackr.pw:1337/announce040
http://mgtracker.org:6969/announce3170
http://fxtt.ru:80/announce090
http://bt.dl1234.com:80/announce020
http://agusiq-torrents.pl:6969/announce0100
http://104.238.198.186:8000/announce010


File List: 


Comments

No comments still posted

Top
Copyright 2018 DownloadHD -|- Page Generated In 3.440308 secs.
-|- RSS Feed -|- Feed Info
Computer-Tablets-Netzwerk | Kono Bijutsubu ni wa Mondai ga Aru! | 04.11.1806:26 Uhr Password Recovery Bundle 2018 Enterprise Edition v8.2Passwortwiederherstellungs-Toolkit 0 / 0841 Hits VID P2P DDL 0 Kommentare