Login
Username:
Password:
[Signup]
[Recover Account]


Browse Torrents

Poll


You must be logged in to view polls



Latest Torrents
MacGyver.2016.S03E...
- [Size: 1.36 GB]

Room.104.S02E03.WE...
- [Size: 223.50 MB]

Real.Time.With.Bil...
- [Size: 329.66 MB]

Van.Helsing.S03E07...
- [Size: 825.83 MB]

Van.Helsing.S03E07...
- [Size: 604.10 MB]


Torrent Details For "The.Sum.of.All.Fears.2002.720p.BluRay.x264.AAC.5.1.-.Download"

The.Sum.of.All.Fears.2002.720p.BluRay.x264.AAC.5.1.-.Download

Download this torrent | Magnet Download
Health:
Seeds: 0
Leechers: 10
Completed:
Last Checked: 27-08-2017 22:07:27
External Torrent
Update Stats



Images Host

Poster


iMDB
Imdb Picture Title: The Sum of All Fears
Year: 2002
Runtime: 124 minutes
Votes: 89861
Rating: 6.4/10
Language: English, Russian, Ukrainian, German, Arabic
Country: USA, Germany
All Genres: Action, Drama, Thriller, War
Plot Outline: CIA analyst Jack Ryan must stop the plans of a Neo Nazis faction that threatens to induce a catastrophic conflict between the United States and Russia's newly elected president by detonating a nuclear weapon at a football game in Baltimore.
Tagline: 27,000 Nuclear Weapons. One Is Missing.
Director: Phil Alden Robinson
Writing By: Tom Clancy,Paul Attanasio,Daniel Pyne,
Produced By: Tom Clancy,Stratton Leopold,Mace Neufeld,
Music: Jerry Goldsmith
Plot:

When the president of Russia suddenly dies, a man whose politics are virtually unknown succeeds him. The change in political leaders sparks paranoia among American CIA officials, so CIA director Bill Cabot recruits a young analyst to supply insight and advice on the situation. Then the unthinkable happens: a nuclear bomb explodes in a U.S. city, and America is quick to blame the Russians.

- Written by Sujit R. Varma

When the President of Russia dies and his replaced by a man with a cryptic past, putting the United States on alert to rising Cold War fears. When the CIA suspects that renegade Russian scientists are attempting to develop more mobile nuclear weapons, East-West tensions over flow. CIA director William Cabot sends his best agent, Jack Ryan into action. What Ryan discovers is that terrorists are planning to provoke a war between the U.S. and Russia, by detonating a nuclear bomb at a football game in Baltimore.

- Written by SindyMac

The United States is very critical of the Russians' treatment of Chechneya that are ready to step in but the new Russian President, whom they believe is a hardliner, tells them that this is none of their concern. However, CIA analyst Jack Ryan, who did research on the man, doesn't think he is. But when the Russians continue to attack Chechneya and the Russian President claims responsibility when in reality he is not, the Americans are ready to go against him. But what they don't know is that there is a third party who is trying to push them into war; which may happen when they detonate a nuclear bomb in the U.S. and people in the Russian Military are in league with this third party and helping him push the two countries to war. But Ryan knows something's going on and is trying to find out what it is before it's too late.

- Written by [email protected]

When the Russian President suddenly dies of a heart attack, the new Russian President is sworn in quickly. American intelligence belives him to be a hard-liner, but young CIA analyst Jack Ryan doesn't think so. While Ryan & his boss, Bill Cabot, are inspecting disarmament at Russian nuclear sites, 3 Russian scientists have mysteriously disappeared. Although the Russians have explanations for their absence, none of them are true. In Austria, a strange man - a neo-fascist - has developed a frightening plan to incite a war between Russia & the U.S., using an unexploded bomb from the deserts of the Middle East. When the 3 Russian scientists are later found dead, Ryan tries to trace their path. By this time, the bomb is on its way to the U.S.A - in a cigarette machine! The bomb is placed in a football stadium where the U.S. President is in attendance. Ryan soon discovers the bomb is in Baltimore and alerts Bill Cabot, who gets the President out of the stadium quickly. Minutes later, the low-yield nuclear bomb explodes, killing several thousands! From Air Force One, the President transmits messages to the Russian President, who denies that the Russians have placed the bomb on U.S. soil. But rogue members of the Russian Air Force are in on the sinister plan, and when an aircraft carrier is attacked and crippled by Russian planes, things quickly go from bad to worse. It is up to Ryan to find out where the bomb came from and get that information to the President before SNAPCOUNT - the order to launch ICBMs at Russia - is completed.

- Written by Derek O'Cain

When a terrorist faction plans to turn American against Russia by placing a nuclear weapon in a Baltimore, DCI William Cabot calls in CIA analyst Jack Ryan to figure out the plans behind this faction and prevent a total catastrophe occurs.

- Written by FilmFanUK

CIA analyst Jack Ryan must stop the plans of a Neo Nazis faction that threatens to induce a catastrophic conflict between the United States and Russia's newly elected president by detonating a nuclear weapon at a football game in Baltimore.

- Written by assmn316
Cast:
Ian Mongrain as Syrian Radar Operator
Russell Bobbitt as Israeli Pilot
James Cromwell as President Fowler
Ken Jenkins as Admiral Pollack
Bruce McGill as National Security Advisor Revell
John Beasley as General Lasseter
Morgan Freeman as DCI William Cabot
Philip Baker Hall as Defense Secretary Becker
Al Vandecruys as US STRATCOM Colonel
Richard Cohee as Mt. Weather General


Watch-Free-HD     Download

Details
Name:The.Sum.of.All.Fears.2002.720p.BluRay.x264.AAC.5.1.-.Download
Description:

Source                      : REMUX

Format                      : Matroska
Format version              : Version 4 / Version 2
File size                   : 1.08 GiB
Duration                    : 2 h 3 min
Overall bit rate            : 1 251 kb/s

Video
ID                          : 1
Format                      : AVC
Format/Info                 : Advanced Video Codec
Format profile              : [email protected]
Format settings, CABAC      : Yes
Format settings, ReFrames   : 8 frames
Codec ID                    : V_MPEG4/ISO/AVC
Duration                    : 2 h 3 min
Bit rate                    : 1 000 kb/s
Width                       : 1 280 pixels
Height                      : 536 pixels
Display aspect ratio        : 2.40:1
Original display aspect rat : 2.40:1
Frame rate mode             : Constant
Frame rate                  : 23.976 (24000/1001) FPS

Audio
ID                          : 2
Format                      : AAC
Format/Info                 : Advanced Audio Codec
Format profile              : LC
Codec ID                    : A_AAC
Duration                    : 2 h 3 min
Bit rate                    : 192 kb/s
Channel(s)                  : 6 channels
Channel positions           : Front: L C R, Side: L R, LFE
Sampling rate               : 48.0 kHz

Text #1
ID                          : 3
Format                      : PGS
Muxing mode                 : zlib
Codec ID                    : S_HDMV/PGS
Codec ID/Info               : Picture based subtitle format used on BDs/HD-DVDs
Duration                    : 1 h 55 min
Bit rate                    : 11.4 kb/s
Count of elements           : 2708
Stream size                 : 9.45 MiB (1%)
Title                       : ENG
Language                    : English
Default                     : Yes
Forced                      : No

Text #2
ID                          : 4
Format                      : PGS
Muxing mode                 : zlib
Codec ID                    : S_HDMV/PGS
Codec ID/Info               : Picture based subtitle format used on BDs/HD-DVDs
Duration                    : 1 h 55 min
Bit rate                    : 12.5 kb/s
Count of elements           : 2992
Stream size                 : 10.4 MiB (1%)
Title                       : ENG (Hearing Impaired)
Language                    : English
Default                     : No
Forced                      : No

Text #3
ID                          : 5
Format                      : PGS
Muxing mode                 : zlib
Codec ID                    : S_HDMV/PGS
Codec ID/Info               : Picture based subtitle format used on BDs/HD-DVDs
Duration                    : 1 h 55 min
Bit rate                    : 16.3 kb/s
Count of elements           : 2306
Stream size                 : 13.5 MiB (1%)
Title                       : NLD
Language                    : Dutch
Default                     : No
Forced                      : No

Text #4
ID                          : 6
Format                      : PGS
Muxing mode                 : zlib
Codec ID                    : S_HDMV/PGS
Codec ID/Info               : Picture based subtitle format used on BDs/HD-DVDs
Duration                    : 1 h 56 min
Bit rate                    : 9 548 b/s
Count of elements           : 2594
Stream size                 : 7.94 MiB (1%)
Title                       : FRA
Language                    : French
Default                     : No
Forced                      : No

Text #5
ID                          : 7
Format                      : PGS
Muxing mode                 : zlib
Codec ID                    : S_HDMV/PGS
Codec ID/Info               : Picture based subtitle format used on BDs/HD-DVDs
Duration                    : 1 h 56 min
Bit rate                    : 10.2 kb/s
Count of elements           : 2610
Stream size                 : 8.45 MiB (1%)
Title                       : SPA
Language                    : Spanish
Default                     : No
Forced                      : No

Menu
00:00:00.000                : :Chapter 1
00:04:50.248                : :Chapter 2
00:13:00.321                : :Chapter 3
00:24:06.570                : :Chapter 4
00:30:06.263                : :Chapter 5
00:36:32.732                : :Chapter 6
00:48:06.967                : :Chapter 7
01:01:08.999                : :Chapter 8
01:06:20.560                : :Chapter 9
01:13:17.018                : :Chapter 10
01:20:12.599                : :Chapter 11
01:26:05.494                : :Chapter 12
01:33:53.211                : :Chapter 13
01:42:02.783                : :Chapter 14
01:47:23.062                : :Chapter 15
01:51:39.651                : :Chapter 16
01:57:15.654                : :Chapter 17

         
Category:Movies > 720P Bluray
Lang:English  English
Total Size:1.08 GB
Info Hash:b5ed4e066ed29a9087a48bedac9f84e2b8195404
Added By:Unknown
Date Added:15-06-2017 13:55:34
Downloads:89

Ratings:Not Yet Rated (Log in to rate it)


Tracker:
udp://tracker.coppersurfer.tk:6969/announce


File List: 


Comments

No comments still posted

Top
Copyright 2018 DownloadHD -|- Page Generated In 0.632068 secs.
-|- RSS Feed -|- Feed Info
Vedi Prodotto | Watch Movie | a2044901892