Login
Username:
Password:
[Signup]
[Recover Account]


Browse Torrents

Poll


You must be logged in to view polls



Latest Torrents
Master.of.Arms.S01...
- [Size: 983.73 MB]

Master.of.Arms.S01...
- [Size: 326.47 MB]

Z.Nation.S05E07.WE...
- [Size: 601.09 MB]

Z.Nation.S05E07.72...
- [Size: 820.80 MB]

Dead Awake 2010 x2...
- [Size: 593.33 MB]


Torrent Details For "Pacific.Rim.2.Uprising.2018.HC.HDRip.XviD.AC3.LLG"

Pacific.Rim.2.Uprising.2018.HC.HDRip.XviD.AC3.LLG

Download this torrent | Magnet Download
Health:
Seeds: 0
Leechers: 13
Completed:
Last Checked: 18-04-2018 14:31:26
External Torrent
Update Stats



Images Host

Poster
No poster


iMDB
Imdb Picture Original Title: Pacific Rim: Uprising
Title: Pacific Rim 2
Year: 2018
Runtime: 111 minutes
Votes: 405
Rating: 6.3/10
Language: English
Country: China, USA
All Genres: Action, Adventure, Sci-Fi
Plot Outline: Jake Pentecost, son of Stacker Pentecost, reunites with Mako Mori to lead a new generation of Jaeger pilots, including rival Lambert and 15-year-old hacker Amara, against a new Kaiju threat.
Tagline: Rise up.
Director: Steven S. DeKnight
Writing By: Steven S. DeKnight,Emily Carmichael,Kira Snyder,T.S. Nowlin,Travis Beacham,
Produced By: Jay Ashenfelter,John Boyega,Cale Boyter,Hopming Cheng,Jennifer Conroy,Guillermo del Toro,Jon Jashni,Eric McLeod,Femi Oguns,Mary Parent,Jake Rice,Thomas Tull,Brook Worley,Dory Wu,
Music: Lorne Balfe
Cast:
John Boyega as Jake Pentecost
Scott Eastwood as Nate Lambert
Cailee Spaeny as Amara Namani
Burn Gorman as Dr. Hermann Gottlieb
Charlie Day as Dr. Newton Geiszler
Tian Jing as Liwen Shao
Jin Zhang as Marshal Quan
Adria Arjona as Jules Reyes
Rinko Kikuchi as Mako Mori
Karan Brar as Cadet Suresh
Trailers:
Trailer
Official Trailer #2
Official Trailer


Watch-Free-HD     Download

Details
Name:Pacific.Rim.2.Uprising.2018.HC.HDRip.XviD.AC3.LLG
Description:




******************************Thumbnail:**********************

 

******************************Screenshots:********************

 Screenshot 1

 Screenshot 2

 Screenshot 3

 Screenshot 4

 Screenshot 5

 Screenshot 6

 Screenshot 7

 Screenshot 8

 Screenshot 9

 Screenshot 0

**************************************************************

Complete name                            : Pacific.Rim.2.Uprising.2018.HC.HDRip.XviD.AC3.LLG.mp4
Format                                   : MPEG-4
Format profile                           : Base Media
Codec ID                                 : isom (isom/iso2/avc1/mp41)
File size                                : 1.03 GiB
Duration                                 : 1 h 50 min
Overall bit rate                         : 1 336 kb/s
Writing application                      : Lavf57.56.101

Video
ID                                       : 1
Format                                   : AVC
Format/Info                              : Advanced Video Codec
Format profile                           : [email protected]
Format settings                          : CABAC / 4 Ref Frames
Format settings, CABAC                   : Yes
Format settings, RefFrames               : 4 frames
Codec ID                                 : avc1
Codec ID/Info                            : Advanced Video Coding
Duration                                 : 1 h 50 min
Bit rate                                 : 1 200 kb/s
Width                                    : 720 pixels
Height                                   : 304 pixels
Display aspect ratio                     : 2.35:1
Frame rate mode                          : Constant
Frame rate                               : 29.970 (29970/1000) FPS
Color space                              : YUV
Chroma subsampling                       : 4:2:0
Bit depth                                : 8 bits
Scan type                                : Progressive
Bits/(Pixel*Frame)                       : 0.183
Stream size                              : 953 MiB (90%)

Audio
ID                                       : 2
Format                                   : AC-3
Format/Info                              : Audio Coding 3
Codec ID                                 : ac-3
Duration                                 : 1 h 50 min
Bit rate mode                            : Constant
Bit rate                                 : 128 kb/s
Channel(s)                               : 2 channels
Channel positions                        : Front: L R
Sampling rate                            : 48.0 kHz
Frame rate                               : 31.250 FPS (1536 SPF)
Bit depth                                : 16 bits
Compression mode                         : Lossy
Stream size                              : 101 MiB (10%)
Title                                    : T2_Audio - English
Service kind                             : Complete Main
Default                                  : Yes
Alternate group                          : 1

Category:Movies > HDRips
Lang:English  English
Total Size:1.04 GB
Info Hash:f3f3e7664b5c63321b152622596e5e4b6bbef031
Added By:LifeLongg
Date Added:18-04-2018 13:44:08
Downloads:41

Ratings:Not Yet Rated (Log in to rate it)


Tracker:
udp://tracker.openbittorrent.com:80/announce


File List: 


Comments

No comments still posted

Top
Copyright 2018 DownloadHD -|- Page Generated In 0.472022 secs.
-|- RSS Feed -|- Feed Info
Bungou Stray Dogs Season 1 Sub Indo Batch Eps 1-12 Lengkap | Ill Follow You Down Full Movie Watch Online Free 720p Download | IMDb: 7 HD Sorry to Bother You