Login
Username:
Password:
[Signup]
[Recover Account]


Browse Torrents

Poll


You must be logged in to view polls



Latest Torrents
Blood.UK.S01E01E02...
- [Size: 387.18 MB]

Hero No Zero 3 (Ma...
- [Size: 638.09 MB]

Chalbaaz (2018) Sa...
- [Size: 699.80 MB]

Bodhon [2017] Beng...
- [Size: 583.86 MB]

Munni Metric Pass ...
- [Size: 591.77 MB]


Torrent Details For "WWE WrestleMania 34 (2018) WEB 720p PPV H.264 ACC - LatestHDMovies"

WWE WrestleMania 34 (2018) WEB 720p PPV H.264 ACC - LatestHDMovies

Download this torrent | Magnet Download
Health:
Seeds: 0
Leechers: 3
Completed:
Last Checked: 05-11-2018 11:41:24
External Torrent
Update Stats



Images Host

Poster


iMDB
Imdb Picture Title: WrestleMania
Year: 2018
Language: English
All Genres: Action, Sport
Plot Outline: Superstars of RAW and Smackdown fight on the grandest stage of them, all, 'WrestleMania'; in order to show, who is the best.
Director: Kevin Dunn

Cast:
John Cena as Himself
C.J. Perry as Lana
Ronda Rousey as Herself
Mark Calaway as The Undertaker
Bill Goldberg as Himself
Mike 'The Miz' Mizanin as The Miz
Paul Levesque as Triple H
Shawn Michaels as Himself
Kurt Angle as Himself
Randy Orton as Himself


Watch-Free-HD     Download

Details
Name:WWE WrestleMania 34 (2018) WEB 720p PPV H.264 ACC - LatestHDMovies
Description:




[[>>SAMPLE<<]
 http://openload.co/f/JTN8Rfbr...es___TeamSHAHID-.mp4









General
Unique ID                   : 191452841688224772129408447573881591092 (0x900879E0055B999F7E5526E2DA791534)
Complete name               : C:\Users\SHAHID\Downloads\Video\WWE WrestleMania 34 WEB 720p PPV H.264 ACC -LatestHDMovies.mkv
Format                      : Matroska
Format version              : Version 4 / Version 2
File size                   : 2.02 GiB
Duration                    : 5 h 10 min
Overall bit rate            : 932 kb/s
Movie name                  : LatestHDMovies | TeamSHAHID
Encoded date                : UTC 2018-04-09 17:09:10
Writing application         : mkvmerge v21.0.0 ('Tardigrades Will Inherit The Earth') 32-bit
Writing library             : libebml v1.3.5 + libmatroska v1.4.8
Cover                       : Yes
Attachments                 : Cover.jpg

Video
ID                          : 1
Format                      : AVC
Format/Info                 : Advanced Video Codec
Format profile              : [email protected]
Format settings             : CABAC / 5 Ref Frames
Format settings, CABAC      : Yes
Format settings, ReFrames   : 5 frames
Codec ID                    : V_MPEG4/ISO/AVC
Duration                    : 5 h 10 min
Bit rate                    : 832 kb/s
Width                       : 896 pixels
Height                      : 504 pixels
Display aspect ratio        : 16:9
Frame rate mode             : Constant
Frame rate                  : 29.970 (30000/1001) FPS
Color space                 : YUV
Chroma subsampling          : 4:2:0
Bit depth                   : 8 bits
Scan type                   : Progressive
Bits/(Pixel*Frame)          : 0.061
Stream size                 : 1.82 GiB (90%)
Title                       : LatestHDMovies - TeamSHAHID
Writing library             : x264 core 148 r2643 5c65704
Encoding settings           : cabac=1 / ref=5 / deblock=1:0:0 / analyse=0x3:0x113 / me=hex / subme=7 / psy=1 / psy_rd=1.00:0.00 / mixed_ref=1 / me_range=16 / chroma_me=1 / trellis=1 / 8x8dct=1 / cqm=0 / deadzone=21,11 / fast_pskip=1 / chroma_qp_offset=-2 / threads=8 / lookahead_threads=8 / sliced_threads=1 / slices=8 / nr=0 / decimate=1 / interlaced=0 / bluray_compat=0 / constrained_intra=0 / bframes=0 / weightp=2 / keyint=250 / keyint_min=25 / scenecut=40 / intra_refresh=0 / rc=abr / mbtree=0 / bitrate=832 / ratetol=1.0 / qcomp=0.60 / qpmin=0 / qpmax=69 / qpstep=4 / ip_ratio=1.40 / aq=1:1.00
Default                     : Yes
Forced                      : No

Audio
ID                          : 2
Format                      : AAC
Format/Info                 : Advanced Audio Codec
Format profile              : LC
Codec ID                    : A_AAC-2
Duration                    : 5 h 10 min
Bit rate                    : 93.5 kb/s
Channel(s)                  : 2 channels
Channel positions           : Front: L R
Sampling rate               : 48.0 kHz
Frame rate                  : 46.875 FPS (1024 SPF)
Compression mode            : Lossy
Delay relative to video     : 7 ms
Stream size                 : 208 MiB (10%)
Title                       : LatestHDMovies - TeamSHAHID
Default                     : Yes
Forced                      : No




 
            
Category:TV > Sports
Lang:English  English
Total Size:2.02 GB
Info Hash:dd8103da5d8400b6889844b4422bfb51afe8f024
Added By:LatestHDMovies
Date Added:09-04-2018 18:30:07
Downloads:545

Ratings:Not Yet Rated (Log in to rate it)


Tracker:
udp://tracker.openbittorrent.com:80/announce


File List: 


Comments

No comments still posted

Top
Copyright 2018 DownloadHD -|- Page Generated In 1.284486 secs.
-|- RSS Feed -|- Feed Info
HD Le 15H17 pour Paris | └ Toys & Games | The House of Violent Desire