Login
Username:
Password:
[Signup]
[Recover Account]


Browse Torrents

Poll


You must be logged in to view polls



Latest Torrents
Bumblebee 2018.NEW...
- [Size: 1.35 GB]

Seth.Meyers.2018.1...
- [Size: 582.88 MB]

Seth.Meyers.2018.1...
- [Size: 586.13 MB]

Seth.Meyers.2018.1...
- [Size: 801.04 MB]

18+.What.Keeps.You...
- [Size: 1.10 GB]


Torrent Details For "The Last Stand 2013 720p Esub BluRay Dual Audio English Hindi GOPISAHI"

The Last Stand 2013 720p Esub BluRay Dual Audio English Hindi GOPISAHI

Download this torrent | Magnet Download
Health:
Seeds: 0
Leechers: 14
Completed: 1,649 
Last Checked: 30-08-2018 05:00:23
External Torrent
Update Stats



Images Host

Poster


iMDB
Imdb Picture Title: The Last Stand
Year: 2013
Runtime: 107 minutes
Votes: 122480
Rating: 6.4/10
Language: English
Country: USA
All Genres: Action, Comedy, Crime, Thriller
Plot Outline: The leader of a drug cartel busts out of a courthouse and speeds to the Mexican border, where the only thing in his path is a sheriff and his inexperienced staff.
Tagline: Retirement is for Sissies.
Director: Jee-woon Kim
Writing By: Andrew Knauer,
Produced By: Lorenzo di Bonaventura,Edward Fee,Miky Lee,Udi Nedivi,Michael Paseornek,Hernany Perla,Guy Riedel,John Sacchi,
Music: Mowg
Cast:
Arron Shiver as State Trooper
Arnold Schwarzenegger as Ray Owens
Titos Menchaca as Mayor
Richard Dillard as Irv
Doug Jackson as Harry
Mathew Greer as Sam
Peter Stormare as Burrell
Chris Browning as Pony Tail
Christiana Leucas as Christie
Johnny Knoxville as Lewis Dinkum
Trailers:
The Last Stand
Red Band Version
Internet Version
Theatrical Version
U.S. Version -- #1


Watch-Free-HD     Download

Details
Name:The Last Stand 2013 720p Esub BluRay Dual Audio English Hindi GOPISAHI
Description:

Format                         : Matroska
Format version                 : Version 4 / Version 2
File size                      : 674 MiB
Duration                       : 1 h 47 min
Overall bit rate               : 878 kb/s
Movie name                     : The Last Stand 2013 GOPISAHI

Video
Format                         : AVC
Codec ID                       : V_MPEG4/ISO/AVC
Duration                       : 1 h 47 min
Bit rate                       : 700 kb/s
Width                          : 1 280 pixels
Height                         : 534 pixels
Display aspect ratio           : 2.40:1
Frame rate mode                : Constant
Frame rate                     : 24.000 FPS
Stream size                    : 536 MiB (80%)
Title                          : GOPISAHI
Writing library                : x264 core 155 r2893 b00bcaf

Audio #1
Format                         : AAC
Duration                       : 1 h 47 min
Bit rate                       : 90.8 kb/s
Channel(s)                     : 6 channels
Channel positions              : Front: L C R, Side: L R, LFE
Sampling rate                  : 44.1 kHz
Frame rate                     : 43.066 FPS (1024 SPF)
Compression mode               : Lossy
Stream size                    : 69.6 MiB (10%)
Title                          : GOPISAHI
Language                       : Hindi

Audio #2
Format                         : AAC
Duration                       : 1 h 47 min
Bit rate                       : 85.3 kb/s
Channel(s)                     : 6 channels
Channel positions              : Front: L C R, Side: L R, LFE
Sampling rate                  : 44.1 kHz
Frame rate                     : 43.066 FPS (1024 SPF)
Compression mode               : Lossy
Stream size                    : 65.4 MiB (10%)
Title                          : GOPISAHI
Language                       : English

Text
Language                       : English


Category:Movies > Hollywood Dub
Lang:Hindi
Total Size:673.69 MB
Info Hash:e49db0f05c5907b4234fffec05b5e16a596c220d
Added By:gopisahi
Date Added:09-04-2018 03:39:39
Downloads:273

Ratings:Not Yet Rated (Log in to rate it)


Tracker:
udp://9.rarbg.com:2740/announce


File List: 


Comments

No comments still posted

Top
Copyright 2018 DownloadHD -|- Page Generated In 1.738493 secs.
-|- RSS Feed -|- Feed Info
Christmas in Theater Eight | Aquarion Logos (26) | Czego ┼╝yczy sobie kobieta (2017)