Login
Username:
Password:
[Signup]
[Recover Account]


Browse Torrents

Poll


You must be logged in to view polls



Latest Torrents
Bumblebee 2018.NEW...
- [Size: 1.35 GB]

Seth.Meyers.2018.1...
- [Size: 582.88 MB]

Seth.Meyers.2018.1...
- [Size: 586.13 MB]

Seth.Meyers.2018.1...
- [Size: 801.04 MB]

18+.What.Keeps.You...
- [Size: 1.10 GB]


Torrent Details For "Welcome (2007) - 12mbps 1080p WEBHD - Team Jio"

Welcome (2007) - 12mbps 1080p WEBHD - Team Jio

Download this torrent | Magnet Download
Health:
Seeds: 0
Leechers: 0
Completed:
Last Checked: 18-12-2018 03:27:28
External Torrent
Update Stats



Images Host

Poster


iMDB
Imdb Picture Title: Welcome
Year: 2007
Runtime: 159 minutes
Votes: 13644
Rating: 6.8/10
Language: Hindi
Country: India
All Genres: Comedy, Crime, Drama, Romance
Plot Outline: A man falls in love with a beautiful woman, but later discovers that her brothers are gangsters.
Director: Anees Bazmee
Writing By: Anees Bazmee,Rajeev Kaul,
Produced By: Rafi Kazi,Firoz Nadiadwala,
Music: Sajid Ali Wajid Ali Anand Raj Anand Himesh Reshammiya
Cast:
Akshay Kumar as Rajiv Saini
Nana Patekar as Uday Shankar Shetty
Anil Kapoor as Sagar 'Majnu' Pandey
Mallika Sherawat as Ishika / Isha
Katrina Kaif as Sanjana S. Shetty
Feroz Khan as Ranvir 'RDX' Dhanraj Xaja
Paresh Rawal as Dr. Ghunghroo
Malaika Arora as Dancer / Singer
Asrani as Bollywood Producer
Charlie as Municipal worker


Watch-Free-HD     Download

Details
Name:Welcome (2007) - 12mbps 1080p WEBHD - Team Jio
Description:

Welcome (2007) - 12mbps 1080p WEBHD - Team Jio



Quote:

General
Complete name : Welcome (2007) - 12mbps 1080p WEBHD - Team Jio.mp4
Format : MPEG-4
Format profile : Base Media
Codec ID : isom (isom/iso2/avc1/mp41)
File size : 12.7 GiB
Duration : 2 h 29 min
Overall bit rate mode : Variable
Overall bit rate : 12.2 Mb/s
Writing application : Lavf56.40.101

Video
ID : 1
Format : AVC
Format/Info : Advanced Video Codec
Format profile : [email protected]
Format settings : CABAC / 4 Ref Frames
Format settings, CABAC : Yes
Format settings, RefFrames : 4 frames
Codec ID : avc1
Codec ID/Info : Advanced Video Coding
Duration : 2 h 29 min
Bit rate : 12.0 Mb/s
Width : 1 920 pixels
Height : 816 pixels
Display aspect ratio : 2.35:1
Frame rate mode : Constant
Frame rate : 25.000 FPS
Color space : YUV
Chroma subsampling : 4:2:0
Bit depth : 8 bits
Scan type : Progressive
Bits/(Pixel*Frame) : 0.306
Stream size : 12.5 GiB (98%)
Writing library : x264 core 138

Audio
ID : 2
Format : AAC
Format/Info : Advanced Audio Codec
Format profile : LC
Codec ID : mp4a-40-2
Duration : 2 h 29 min
Bit rate mode : Variable
Bit rate : 192 kb/s
Maximum bit rate : 195 kb/s
Channel(s) : 2 channels
Channel positions : Front: L R
Sampling rate : 48.0 kHz
Frame rate : 46.875 FPS (1024 SPF)
Compression mode : Lossy
Stream size : 205 MiB (2%)
Default : Yes
Alternate group : 1



 
 
 
 
 
 
 

Category:Movies > WEB-HD
Lang:Hindi
Total Size:12.73 GB
Info Hash:62bf7ba6277405dcd721db14eef44826a346d21a
Added By:t4n7iR
Date Added:09-04-2018 02:12:52
Downloads:208

Ratings:Not Yet Rated (Log in to rate it)


Tracker:
http://jiotorrents.net/announce.php?pk=d7474d9c7c536b05a1d8a325c8236eb419131fb2


File List: 


Comments

No comments still posted

Top
Copyright 2018 DownloadHD -|- Page Generated In 1.993382 secs.
-|- RSS Feed -|- Feed Info
John Donne | I’ll Be Next Door for Christmas | Temporada 01