Login
Username:
Password:
[Signup]
[Recover Account]


Browse Torrents

Poll


You must be logged in to view polls



Latest Torrents
Fantastic Beasts T...
- [Size: 743.06 MB]

Speed Kills (2018)...
- [Size: 802.82 MB]

Videoman.2018.BDRi...
- [Size: 545.41 MB]

18+ A Taruna Khana...
- [Size: 131.00 MB]

Bad.Blood.2017.S02...
- [Size: 222.71 MB]


Torrent Details For "Dangal 2016 720p Esub BluRay Hindi GOPI SAHI"

Dangal 2016 720p Esub BluRay Hindi GOPI SAHI

Download this torrent | Magnet Download
Health:
Seeds: 0
Leechers: 7
Completed: 942 
Last Checked: 15-10-2018 16:27:34
External Torrent
Update Stats



Images Host

Poster
No poster


Watch-Free-HD     Download

Details
Name:Dangal 2016 720p Esub BluRay Hindi GOPI SAHI
Description:

Video
Codec ID                       : V_MPEG4/ISO/AVC
Duration                       : 2 h 41 min
Bit rate                       : 699 kb/s
Width                          : 1 280 pixels
Height                         : 536 pixels
Display aspect ratio           : 2.40:1
Frame rate mode                : Constant
Frame rate                     : 24.000 FPS
Stream size                    : 795 MiB (88%)
Writing library                : x264 core 130 r2273 b3065e6

Audio
Duration                       : 2 h 41 min
Bit rate                       : 89.6 kb/s
Channel(s)                     : 6 channels
Channel positions              : Front: L C R, Side: L R, LFE
Sampling rate                  : 44.1 kHz
Frame rate                     : 43.066 FPS (1024 spf)
Stream size                    : 103 MiB (11%)
Title                          : GOPI SAHI
Language                       : Hindi

Text
Duration                       : 2 h 33 min
Stream size                    : 62.1 KiB (0%)
Language                       : English



[/center]
Category:Movies > Bollywood
Lang:Hindi
Total Size:900.52 MB
Info Hash:b26ee949e59d7f9f961b1ca7490b6345c6518054
Added By:gopisahi
Date Added:12-06-2017 04:56:33
Downloads:451

Ratings:Not Yet Rated (Log in to rate it)


Tracker:
udp://tracker.coppersurfer.tk:6969/announce


File List: 


Comments

No comments still posted

Top
Copyright 2018 DownloadHD -|- Page Generated In 0.320807 secs.
-|- RSS Feed -|- Feed Info
Hund-tracking | Moneycontrol Stocks Unlocked APK | Wollsocken handgestrickt, Gr. 38/39