Login
Username:
Password:
[Signup]
[Recover Account]


Browse Torrents

Poll


You must be logged in to view polls



Latest Torrents
Fantastic Beasts T...
- [Size: 743.06 MB]

Speed Kills (2018)...
- [Size: 802.82 MB]

Videoman.2018.BDRi...
- [Size: 545.41 MB]

18+ A Taruna Khana...
- [Size: 131.00 MB]

Bad.Blood.2017.S02...
- [Size: 222.71 MB]


Torrent Details For "Shabd 2005 Hindi 720p WEB-HD AAC 2.0 x264 [MW]"

Shabd 2005 Hindi 720p WEB-HD AAC 2.0 x264 [MW]

Download this torrent | Magnet Download
Health:
Seeds: 0
Leechers: 22
Completed: 710 
Last Checked: 18-09-2018 19:01:57
External Torrent
Update Stats



Images Host

Poster
No poster


Watch-Free-HD     Download

Details
Name:Shabd 2005 Hindi 720p WEB-HD AAC 2.0 x264 [MW]
Description:

 


General
Format                                   : Matroska
Format version                           : Version 4 / Version 2
File size                                : 1.09 GiB
Duration                                 : 2 h 22 min
Overall bit rate                         : 1 096 kb/s

Video
ID                                       : 1
Format                                   : AVC
Format/Info                              : Advanced Video Codec
Format profile                           : [email protected]
Format settings                          : CABAC / 4 Ref Frames
Format settings, CABAC                   : Yes
Format settings, RefFrames               : 4 frames
Codec ID                                 : V_MPEG4/ISO/AVC
Duration                                 : 2 h 22 min
Bit rate                                 : 1 000 kb/s
Width                                    : 1 280 pixels
Height                                   : 568 pixels
Display aspect ratio                     : 2.25:1
Frame rate mode                          : Constant
Frame rate                               : 25.000 FPS
Color space                              : YUV
Chroma subsampling                       : 4:2:0
Bit depth                                : 8 bits
Scan type                                : Progressive
Bits/(Pixel*Frame)                       : 0.055
Stream size                              : 1 017 MiB (91%)
Writing library                          : x264 core 155 r2893 b00bcaf
Default                                  : Yes
Forced                                   : No

Audio
ID                                       : 2
Format                                   : AAC
Format/Info                              : Advanced Audio Codec
Format profile                           : LC
Codec ID                                 : A_AAC-2
Duration                                 : 2 h 22 min
Bit rate                                 : 96.0 kb/s
Channel(s)                               : 2 channels
Channel positions                        : Front: L R
Sampling rate                            : 48.0 kHz
Frame rate                               : 46.875 FPS (1024 SPF)
Compression mode                         : Lossy
Delay relative to video                  : 21 ms
Stream size                              : 98.8 MiB (9%)
Default                                  : Yes
Forced                                   : No




           


Category:Movies > Bollywood
Lang:Hindi
Total Size:1.09 GB
Info Hash:973a71afd0aded048ae5000f8420de61c3e3d068
Added By:Freaky
Date Added:06-04-2018 09:36:23
Downloads:408

Ratings:Not Yet Rated (Log in to rate it)


Tracker:
udp://tracker.pirateparty.gr:6969/announce

This Torrent also has backup trackers
URLSeedersLeechersCompleted
http://tracker.vanitycore.co:6969/announce02322
http://public.popcorn-tracker.org:6969/announce020


File List: 


Comments

No comments still posted

Top
Copyright 2018 DownloadHD -|- Page Generated In 4.547875 secs.
-|- RSS Feed -|- Feed Info
Solgar No. 7, Solgar, 90 capsule | Catena da neve omologate 9 mm GRUPPO 70 185/65R15 ed altri (v.descrizione) | Read More