Login
Username:
Password:
[Signup]
[Recover Account]


Browse Torrents

Poll


You must be logged in to view polls



Latest Torrents
Master.of.Arms.S01...
- [Size: 983.73 MB]

Master.of.Arms.S01...
- [Size: 326.47 MB]

Z.Nation.S05E07.WE...
- [Size: 601.09 MB]

Z.Nation.S05E07.72...
- [Size: 820.80 MB]

Dead Awake 2010 x2...
- [Size: 593.33 MB]


Torrent Details For "Muzaffarnagar The Burning Love (2017) Hindi HDRip x264 AAC[Movcr]"

Muzaffarnagar The Burning Love (2017) Hindi HDRip x264 AAC[Movcr]

Download this torrent | Magnet Download
Health:
Seeds: 0
Leechers: 13
Completed: 556 
Last Checked: 08-05-2018 10:42:50
External Torrent
Update Stats



Images Host

Poster


iMDB
Imdb Picture Title: Muzaffarnagar 2013
Year: 2017
Votes: 11
Rating: 7.9/10
Language: Hindi
Country: India
All Genres: Drama
Director: Harish Kumar
Writing By: Harish Kumar,Manoj Kumar,
Produced By: Manoj Kumar Maandi,
Music: Faraaz Ahmed Manoj Nayan
Cast:
Dev Sharma as Dev Malik
Mursaleem Qureshi as Sunny
Anil George as Jodha Singh
Aishwarya Devan as Sara Khan
Ravi Khanna as Sunny's Father


Watch-Free-HD     Download

Details
Name:Muzaffarnagar The Burning Love (2017) Hindi HDRip x264 AAC[Movcr]
Description:
Visit  www.mrbuz.com   For Direct Links

Muzaffarnagar The Burning Love (2017) Hindi HDRip x264 AAC[Movcr]

 http://www.imdb.com/title/tt5570606/

 

General
Complete name                            : www.MRbuZ.com - Muzaffarnagar The Burning Love (2017) Hindi HDRip x264 AAC[Movcr].mkv
Format                                   : Matroska
Format version                           : Version 4 / Version 2
File size                                : 697 MiB
Duration                                 : 2 h 14 min
Overall bit rate                         : 723 kb/s
Movie name                               : MRbuZ.com
Encoded date                             : UTC 2018-04-04 13:23:26
Writing application                      : mkvmerge v9.5.0 ('Quiet Fire') 64bit
Writing library                          : libebml v1.3.4 + libmatroska v1.4.5
Attachments                              : 615f8407a6a2ef06fc5e8b75cad07129.jpg

Video
ID                                       : 1
Format                                   : AVC
Format/Info                              : Advanced Video Codec
Format profile                           : [email protected]
Format settings                          : CABAC / 4 Ref Frames
Format settings, CABAC                   : Yes
Format settings, RefFrames               : 4 frames
Codec ID                                 : V_MPEG4/ISO/AVC
Duration                                 : 2 h 14 min
Bit rate                                 : 337 kb/s
Width                                    : 720 pixels
Height                                   : 304 pixels
Display aspect ratio                     : 2.35:1
Frame rate mode                          : Constant
Frame rate                               : 25.000 FPS
Color space                              : YUV
Chroma subsampling                       : 4:2:0
Bit depth                                : 8 bits
Scan type                                : Progressive
Bits/(Pixel*Frame)                       : 0.062
Stream size                              : 325 MiB (47%)
Title                                    : MRbuZ.com
Writing library                          : x264 core 155 r2901 7d0ff22
Encoding settings                        : cabac=1 / ref=3 / deblock=1:0:0 / analyse=0x3:0x113 / me=hex / subme=7 / psy=1 / psy_rd=1.00:0.00 / mixed_ref=1 / me_range=16 / chroma_me=1 / trellis=1 / 8x8dct=1 / cqm=0 / deadzone=21,11 / fast_pskip=1 / chroma_qp_offset=-2 / threads=9 / lookahead_threads=1 / sliced_threads=0 / nr=0 / decimate=1 / interlaced=0 / bluray_compat=0 / constrained_intra=0 / bframes=3 / b_pyramid=2 / b_adapt=1 / b_bias=0 / direct=1 / weightb=1 / open_gop=0 / weightp=2 / keyint=250 / keyint_min=25 / scenecut=40 / intra_refresh=0 / rc_lookahead=40 / rc=2pass / mbtree=1 / bitrate=337 / ratetol=1.0 / qcomp=0.60 / qpmin=0 / qpmax=69 / qpstep=4 / cplxblur=20.0 / qblur=0.5 / ip_ratio=1.40 / aq=1:1.00
Default                                  : Yes
Forced                                   : No

Audio
ID                                       : 2
Format                                   : AC-3
Format/Info                              : Audio Coding 3
Codec ID                                 : A_AC3
Duration                                 : 2 h 14 min
Bit rate mode                            : Constant
Bit rate                                 : 384 kb/s
Channel(s)                               : 2 channels
Channel positions                        : Front: L R
Sampling rate                            : 44.1 kHz
Frame rate                               : 28.711 FPS (1536 SPF)
Bit depth                                : 16 bits
Compression mode                         : Lossy
Stream size                              : 370 MiB (53%)
Title                                    : MRbuZ.com
Language                                 : Hindi
Service kind                             : Complete Main
Default                                  : Yes
Forced                                   : No



 
 
 
 
 
 
Category:Movies > Bollywood
Lang:Hindi
Total Size:697.15 MB
Info Hash:f0ae78fcb6ab60c5a0dff779bfb4478c5bb82eae
Added By:Kingmaker
Date Added:04-04-2018 14:27:47
Downloads:525

Ratings:Not Yet Rated (Log in to rate it)


Tracker:
udp://tracker.openbittorrent.com:80/announce

This Torrent also has backup trackers
URLSeedersLeechersCompleted
http://tracker2.itzmx.com:6961/announce010
http://tracker.vanitycore.co:6969/announce010
http://tracker.torrentyorg.pl:80/announce010
http://tracker.tfile.me:80/announce000
http://tracker.mg64.net:6881/announce010
http://tracker.electro-torrent.pl:80/announce010
http://torrentsmd.me:8080/announce000
http://share.camoe.cn:8080/announce000
http://servandroidkino.ru:80/announce000
http://p4p.arenabg.com:1337/announce000
http://open.acgtracker.com:1096/announce000
http://omg.wtftrackr.pw:1337/announce010
http://mgtracker.org:6969/announce010
http://bt.dl1234.com:80/announce010
http://agusiq-torrents.pl:6969/announce000
http://104.238.198.186:8000/announce01162


File List: 


Comments

No comments still posted

Top
Copyright 2018 DownloadHD -|- Page Generated In 1.860938 secs.
-|- RSS Feed -|- Feed Info
Nu Kopen | Vakalopoulos Istoria Tou Neou Ellinismou 5 | Watch now