Login
Username:
Password:
[Signup]
[Recover Account]


Browse Torrents

Poll


You must be logged in to view polls



Latest Torrents
Auslogics Anti-Mal...
- [Size: 8.10 MB]

AnyTrans for iOS 7...
- [Size: 80.62 MB]

Allavsoft Video Do...
- [Size: 31.93 MB]

Acronis Disk Direc...
- [Size: 494.26 MB]

The.Farm.2018.HDRi...
- [Size: 1.31 GB]


Torrent Details For "Ata Pata Laapata 2011 Hindi DvdScr x264 Aac By Sam"

Ata Pata Laapata 2011 Hindi DvdScr x264 Aac By Sam

Download this torrent | Magnet Download
Health:
Seeds: 0
Leechers: 36
Completed:
Last Checked: 05-12-2017 14:13:52
External Torrent
Update Stats



Images Host

Poster


iMDB
Imdb Picture Title: Ata Pata Lapatta
Year: 2012
Runtime: 120 minutes
Votes: 73
Rating: 5.4/10
Language: Hindi
Country: India
All Genres: Comedy, Musical
Tagline: Truth With Entertainment
Director: Rajpal Yadav
Writing By: Sanjay Kumar,Sandeep Nath,M. Saleem,Sanjay Shubhankar,Pradeep Singrole,Gopal Tiwari,Rajpal Yadav,
Produced By: Salim Derariya,Chandrapal Yadav,Indrapal Yadav,Radha Yadav,
Music: Adesh Shrivastava
Cast:
Asrani as Session Court Lawyer
Amit Behl as Lawyer
Lankesh Bhardwaj as Theatrist
Krishna Bhatt as Sevakram
Raja Bherwani as Lawyer
Satyadev Dubey as Pagla Baba
Jayant Gadekar as Farm House Owner
Vikram Gokhale as S.P.
Yusuf Hussein as Session Court Judge
Zakhir Hussein as Bhoomi


Watch-Free-HD     Download

Details
Name:Ata Pata Laapata 2011 Hindi DvdScr x264 Aac By Sam
Description:
Media Info:

Quote:

Format                      : Matroska
Format version              : Version 4 / Version 2
File size                   : 798 MiB
Duration                    : 2 h 8 min
Overall bit rate mode       : Variable
Overall bit rate            : 869 kb/s
Movie name                  : Ata Pata Laapata 2011 Hindi DvdScr x264 Aac By Sam
Encoded date                : UTC 2017-06-09 16:48:14
Writing application         : mkvmerge v8.1.0 ('Psychedelic Postcard') 32bit
Writing library             : libebml v1.3.1 + libmatroska v1.4.2

Video
ID                          : 1
Format                      : AVC
Format/Info                 : Advanced Video Codec
Format profile              : [email protected]
Format settings, CABAC      : Yes
Format settings, ReFrames   : 3 frames
Codec ID                    : V_MPEG4/ISO/AVC
Duration                    : 2 h 8 min
Bit rate mode               : Variable
Bit rate                    : 803 kb/s
Maximum bit rate            : 8 000 kb/s
Width                       : 720 pixels
Height                      : 304 pixels
Display aspect ratio        : 2.35:1
Frame rate mode             : Constant
Frame rate                  : 23.976 (24000/1001) FPS
Standard                    : NTSC
Color space                 : YUV
Chroma subsampling          : 4:2:0
Bit depth                   : 8 bits
Scan type                   : Progressive
Bits/(Pixel*Frame)          : 0.153
Stream size                 : 738 MiB (92%)
Writing library             : x264 core 114
Default                     : Yes
Forced                      : No
Color range                 : Limited
Color primaries             : BT.601 NTSC
Transfer characteristics    : BT.601
Matrix coefficients         : BT.601

Audio
ID                          : 2
Format                      : AAC
Format/Info                 : Advanced Audio Codec
Format profile              : LC
Codec ID                    : A_AAC
Duration                    : 2 h 8 min
Bit rate                    : 63.9 kb/s
Channel(s)                  : 2 channels
Channel positions           : Front: L R
Sampling rate               : 48.0 kHz
Frame rate                  : 46.875 FPS (1024 spf)
Compression mode            : Lossy
Stream size                 : 58.7 MiB (7%)
Language                    : Hindi
Default                     : Yes
Forced                      : No

Screenshots :











Category:Movies > Bollywood
Lang:Hindi
Total Size:798.47 MB
Info Hash:7478e52ccb441dffeea0054871dca4d65ad4cf97
Added By:olddilli
Date Added:09-06-2017 17:56:51
Downloads:651

Ratings:Not Yet Rated (Log in to rate it)


Tracker:
udp://tracker.coppersurfer.tk:6969/announce

This Torrent also has backup trackers
URLSeedersLeechersCompleted
http://t.nyaatracker.com:80/announce280
http://ipv4.tracker.harry.lu/announce030
http://ipv4.tracker.harry.lu:80/announce030
http://open.kickasstracker.com:443/announce010


File List: 

Error reading .nfo file!

Comments

No comments still posted

Top
Copyright 2018 DownloadHD -|- Page Generated In 3.430118 secs.
-|- RSS Feed -|- Feed Info