Login
Username:
Password:
[Signup]
[Recover Account]


Browse Torrents

Poll


You must be logged in to view polls



Latest Torrents
Master.of.Arms.S01...
- [Size: 983.73 MB]

Master.of.Arms.S01...
- [Size: 326.47 MB]

Z.Nation.S05E07.WE...
- [Size: 601.09 MB]

Z.Nation.S05E07.72...
- [Size: 820.80 MB]

Dead Awake 2010 x2...
- [Size: 593.33 MB]


Torrent Details For "Baaghi 2 (2018) Hindi New PRE x264 AAC 650MB [HDFilmBoss]"

Baaghi 2 (2018) Hindi New PRE x264 AAC 650MB [HDFilmBoss]

Download this torrent | Magnet Download
Health:
Seeds: 0
Leechers: 5
Completed:
Last Checked: 06-04-2018 19:32:41
External Torrent
Update Stats



Images Host

Poster


iMDB
Imdb Picture Title: Baaghi 2
Year: 2018
Language: Hindi
Country: India
All Genres: Action
Plot Outline: Ronny, is hired by ex-lover Neha, to track down her daughter Riya, who has been kidnapped.
Director: Ahmed Khan
Writing By: Hussain Dalal,Abbas Hirapurwala,Jojo Khan,Niraj Kumar Mishra,Sajid Nadiadwala,
Produced By: Bharat Bohra,Dipti Jindal,Rakesh Madhotra,Sajid Nadiadwala,Vikram Raazdan,Vijay Singh,
Music: Mithoon Julius Packiam
Cast:
Disha Patani as Neha
Tiger Shroff as Ronny
Randeep Hooda as
Manoj Bajpayee as
Lakshmi Manchu as
Prateik as
Shifuji Shaurya Bharadwaj as
Paras Arora as
Darshan Kumar as
Indraneel Bhattacharya as
Trailers:
Baaghi 2 Trailer


Watch-Free-HD     Download

Details
Name:Baaghi 2 (2018) Hindi New PRE x264 AAC 650MB [HDFilmBoss]
Description:
Direct Download Link:

 http://www.linkshub.me/view/sLWZeqAq94

General
Complete name                            : Baaghi 2 (2018) Hindi New NR DVDRip x264 AAC 650MB [HDFilmBoss.Com].MP4
Format                                   : MPEG-4
Format profile                           : Base Media
Codec ID                                 : isom (isom/iso2/avc1/mp41)
File size                                : 624 MiB
Duration                                 : 2 h 15 min
Overall bit rate                         : 644 kb/s
Movie name                               : BAAGHI 2 (2018) Hindi HDFilmBoss.Com
Writing application                      : Lavf57.83.100

Video
ID                                       : 1
Format                                   : AVC
Format/Info                              : Advanced Video Codec
Format profile                           : [email protected]
Format settings                          : CABAC / 5 Ref Frames
Format settings, CABAC                   : Yes
Format settings, RefFrames               : 5 frames
Codec ID                                 : avc1
Codec ID/Info                            : Advanced Video Coding
Duration                                 : 2 h 15 min
Bit rate                                 : 512 kb/s
Width                                    : 720 pixels
Height                                   : 320 pixels
Display aspect ratio                     : 2.25:1
Frame rate mode                          : Constant
Frame rate                               : 25.000 FPS
Color space                              : YUV
Chroma subsampling                       : 4:2:0
Bit depth                                : 8 bits
Scan type                                : Progressive
Bits/(Pixel*Frame)                       : 0.089
Stream size                              : 495 MiB (79%)
Writing library                          : x264

Audio
ID                                       : 2
Format                                   : AAC
Format/Info                              : Advanced Audio Codec
Format profile                           : LC
Codec ID                                 : mp4a-40-2
Duration                                 : 2 h 15 min
Duration_LastFrame                       : -11 ms
Bit rate mode                            : Constant
Bit rate                                 : 128 kb/s
Channel(s)                               : 2 channels
Channel positions                        : Front: L R
Sampling rate                            : 44.1 kHz
Frame rate                               : 43.066 FPS (1024 SPF)
Compression mode                         : Lossy
Stream size                              : 124 MiB (20%)

SCREEN SHORT:
 http://i.imgur.com/9vzLd3x.jpg

 http://i.imgur.com/Qc5325E.jpg

 http://i.imgur.com/SKZW2JF.jpg

 http://i.imgur.com/U2JK6Dl.jpg

 http://i.imgur.com/dBdUETy.jpg

 http://hdfilmboss.com/[/center]
Category:Movies > Bollywood
Lang:Hindi
Total Size:624.14 MB
Info Hash:f0ac1d834931bb296ff1e3cb045ea21acb3ac299
Added By:hdfilmboss
Date Added:02-04-2018 06:03:26
Downloads:844

Ratings:Not Yet Rated (Log in to rate it)


Tracker:
udp://9.rarbg.to:2710/announce


File List: 


Comments

No comments still posted

Top
Copyright 2018 DownloadHD -|- Page Generated In 0.284409 secs.
-|- RSS Feed -|- Feed Info
Black Yome ni Yoroshiku! | davej623 | Jakob Cedergren