Login
Username:
Password:
[Signup]
[Recover Account]


Browse Torrents

Poll


You must be logged in to view polls



Latest Torrents
Blood.UK.S01E01E02...
- [Size: 387.18 MB]

Hero No Zero 3 (Ma...
- [Size: 638.09 MB]

Chalbaaz (2018) Sa...
- [Size: 699.80 MB]

Bodhon [2017] Beng...
- [Size: 583.86 MB]

Munni Metric Pass ...
- [Size: 591.77 MB]


Torrent Details For " Salaam-e-Ishq - (2007) - 720p WEB-RIP - x265 - AAC - Esub - [t4n7iR]"

Salaam-e-Ishq - (2007) - 720p WEB-RIP - x265 - AAC - Esub - [t4n7iR]

Download this torrent | Magnet Download
Health:
Seeds: 0
Leechers: 1
Completed:
Last Checked: 13-05-2018 11:43:34
External Torrent
Update Stats



Images Host

Poster


iMDB
Imdb Picture Title: Salaam-E-Ishq
Year: 2007
Runtime: 216 minutes
Votes: 4630
Rating: 5.2/10
Language: Hindi
Country: India
All Genres: Comedy, Drama, Musical, Romance
Plot Outline: Six couples in love must face different problems caused by love itself. Do they resolve their issues and face life anew, or do they succumb under pressure ?
Director: Nikkhil Advani
Writing By: Nikkhil Advani,Nikkhil Advani,Rahul Awate,Suresh Nair,Saurabh Shukla,
Produced By: Jitender K. Bagga,Ashwani Chopra,Sunil Manchanda,Mukesh Talreja,Chettan Motiwalla,
Music: Shankar Mahadevan Loy Mendonsa Ehsaan Noorani
Cast:
Salman Khan as Raúl / Rahul
Priyanka Chopra as Kamna 'Kamini'
Anil Kapoor as Vinay Malhotra
Juhi Chawla as Seema Malhotra
Akshaye Khanna as Shiven Dungarpur
Ayesha Takia as Gia Bakshi
John Abraham as Ashutosh Raina
Vidya Balan as Tehzeeb Hussain
Govinda as Raju
Shannon Esra as Stephanie


Watch-Free-HD     Download

Details
Name: Salaam-e-Ishq - (2007) - 720p WEB-RIP - x265 - AAC - Esub - [t4n7iR]
Description:




Quote:

General
Complete name               : Salaam-e-Ishq - (2007) - 720p WEB-RIP - x265 - AAC - Esub - [t4n7iR].mkv
Format                      : Matroska
Format version              : Version 4 / Version 2
File size                   : 1.81 GiB
Duration                    : 3 h 43 min
Overall bit rate            : 1 155 kb/s
Movie name                  : [email protected]
Encoded date                : UTC 2018-04-01 23:30:30
Cover                       : Yes
Attachments                 : cover

Video
ID                          : 1
Format                      : HEVC
Format/Info                 : High Efficiency Video Coding
Format profile              : [email protected]@Main
Codec ID                    : V_MPEGH/ISO/HEVC
Duration                    : 3 h 43 min
Bit rate                    : 1 025 kb/s
Width                       : 1 280 pixels
Height                      : 534 pixels
Display aspect ratio        : 2.40:1
Frame rate mode             : Constant
Frame rate                  : 25.000 FPS
Color space                 : YUV
Chroma subsampling          : 4:2:0
Bit depth                   : 8 bits
Bits/(Pixel*Frame)          : 0.060
Stream size                 : 1.60 GiB (89%)
Title                       : t4n7iR
Language                    : English
Default                     : Yes
Forced                      : No

Audio
ID                          : 2
Format                      : AAC
Format/Info                 : Advanced Audio Codec
Format profile              : LC
Codec ID                    : A_AAC-2
Duration                    : 3 h 43 min
Bit rate                    : 128 kb/s
Channel(s)                  : 2 channels
Channel positions           : Front: L R
Sampling rate               : 48.0 kHz
Frame rate                  : 46.875 FPS (1024 SPF)
Compression mode            : Lossy
Stream size                 : 205 MiB (11%)
Title                       : t4n7iR
Language                    : Hindi
Default                     : Yes
Forced                      : No

Text
ID                          : 3
Format                      : UTF-8
Codec ID                    : S_TEXT/UTF8
Codec ID/Info               : UTF-8 Plain Text
Duration                    : 3 h 41 min
Bit rate                    : 49 b/s
Count of elements           : 2671
Stream size                 : 81.0 KiB (0%)
Title                       : t4n7iR
Language                    : English
Default                     : Yes
Forced                      : No























Category:Movies > Bollywood
Lang:Hindi
Total Size:1.81 GB
Info Hash:1b7b5aedfa796eafd3a0218b1f5812c3aeae8eb6
Added By:t4n7iR
Date Added:01-04-2018 23:43:54
Downloads:544

Ratings:Not Yet Rated (Log in to rate it)


Tracker:
http://jiotorrents.net/announce.php?pk=d7474d9c7c536b05a1d8a325c8236eb419131fb2


File List: 


Comments

<< Previous      Next >>
1 - 1

[Report] Posted: 10-04-2018 at 09:44:48
wiki



:love

1 - 1
<< Previous      Next >>


Top
Copyright 2018 DownloadHD -|- Page Generated In 4.030341 secs.
-|- RSS Feed -|- Feed Info
A végzet napja (Teljes film) 18+ | Büromöbel | └ Kunst en antiek