Login
Username:
Password:
[Signup]
[Recover Account]


Browse Torrents

Poll


You must be logged in to view polls



Latest Torrents
Madras Cafe (2013)...
- [Size: 1.69 GB]

Crazy Frog - The B...
- [Size: 111.67 MB]

Beyond.The.Sky.201...
- [Size: 16.97 GB]

The.Happytime.Murd...
- [Size: 4.45 GB]

The.Ice.Harvest.20...
- [Size: 6.56 GB]


Torrent Details For "Singh Is Kinng - (2008) - 720p WEB-RIP - x265 - AAC - Esub - [t4n7iR]"

Singh Is Kinng - (2008) - 720p WEB-RIP - x265 - AAC - Esub - [t4n7iR]

Download this torrent | Magnet Download
Health:
Seeds: 0
Leechers: 8
Completed: 23 
Last Checked: 30-05-2018 10:41:35
External Torrent
Update Stats



Images Host

Poster


iMDB
Imdb Picture Title: Singh Is Kinng
Year: 2008
Runtime: 135 minutes
Votes: 12101
Rating: 5.8/10
Language: Hindi, Panjabi
Country: Australia, India
All Genres: Action, Comedy, Crime, Drama, Romance
Plot Outline: A comic caper about Happy Singh, a Punjabi villager who goes through a series of misadventures and eventually becomes the Kinng of the Australian underworld.
Tagline: Summer 2008: The gang of Punjab arrives with a bang!
Director: Anees Bazmee
Writing By: Anees Bazmee,Vipul Binjola,Suresh Nair,Rishi Virmani,
Produced By: Arun Lamba,Bimal Oberoi,David Redman,Aashin A. Shah,Vipul Amrutlal Shah,
Music: Pritam Chakraborty RDB
Cast:
Akshay Kumar as Happy Singh
Katrina Kaif as Sonia
Om Puri as Rangeela
Kiron Kher as Rose Lady / Sonia's mother
Ranvir Shorey as Puneet
Javed Jaffrey as Mika / Puneet's father
Neha Dhupia as Julie
Yashpal Sharma as Pankaj Udhas
Manoj Pahwa as Dilbagh Singh
Kamal Chopra as Gurbaksh 'Guruji' Singh


Watch-Free-HD     Download

Details
Name:Singh Is Kinng - (2008) - 720p WEB-RIP - x265 - AAC - Esub - [t4n7iR]
Description:




Quote:

General
Complete name : Singh Is Kinng - (2008) - 720p WEB-RIP - x265 - AAC - Esub - [t4n7iR].mkv
Format : Matroska
Format version : Version 4 / Version 2
File size : 1.06 GiB
Duration : 2 h 10 min
Overall bit rate : 1 155 kb/s
Movie name : Singh Is [email protected]
Encoded date : UTC 2018-04-01 23:04:16
Cover : Yes
Attachments : cover

Video
ID : 1
Format : HEVC
Format/Info : High Efficiency Video Coding
Format profile : [email protected]@Main
Codec ID : V_MPEGH/ISO/HEVC
Duration : 2 h 10 min
Bit rate : 1 025 kb/s
Width : 1 280 pixels
Height : 544 pixels
Display aspect ratio : 2.35:1
Frame rate mode : Constant
Frame rate : 25.000 FPS
Color space : YUV
Chroma subsampling : 4:2:0
Bit depth : 8 bits
Bits/(Pixel*Frame) : 0.059
Stream size : 959 MiB (89%)
Title : t4n7iR
Language : English
Default : Yes
Forced : No

Audio
ID : 2
Format : AAC
Format/Info : Advanced Audio Codec
Format profile : LC
Codec ID : A_AAC-2
Duration : 2 h 10 min
Bit rate : 128 kb/s
Channel(s) : 2 channels
Channel positions : Front: L R
Sampling rate : 44.1 kHz
Frame rate : 43.066 FPS (1024 SPF)
Compression mode : Lossy
Stream size : 119 MiB (11%)
Title : t4n7iR
Language : Hindi
Default : Yes
Forced : No

Text
ID : 3
Format : UTF-8
Codec ID : S_TEXT/UTF8
Codec ID/Info : UTF-8 Plain Text
Duration : 2 h 9 min
Bit rate : 82 b/s
Count of elements : 2359
Stream size : 78.1 KiB (0%)
Title : t4n7iR
Language : English
Default : No
Forced : No























Category:Movies > Bollywood
Lang:Hindi
Total Size:1.06 GB
Info Hash:fdee126b718d9e5d22052a9f49a530ea1e29dadd
Added By:t4n7iR
Date Added:01-04-2018 23:17:54
Downloads:469

Ratings:Not Yet Rated (Log in to rate it)


Tracker:
http://jiotorrents.net/announce.php?pk=d7474d9c7c536b05a1d8a325c8236eb419131fb2


File List: 


Comments

<< Previous      Next >>
1 - 2

[Report] Posted: 14-04-2018 at 11:08:44
wiki




[Report] Posted: 17-05-2018 at 09:01:49
wiki



Koi Hai Jo SEEDS KARE....Uploader BHaiya Kch KARO :(  :(  :(

1 - 2
<< Previous      Next >>


Top
Copyright 2018 DownloadHD -|- Page Generated In 4.202978 secs.
-|- RSS Feed -|- Feed Info
Slayers Revolution | Suspense | The Romanoffs S01E06 WEB x264-PHOENiX[eztv] mkv