Login
Username:
Password:
[Signup]
[Recover Account]


Browse Torrents

Poll


You must be logged in to view polls



Latest Torrents
Bumblebee 2018.NEW...
- [Size: 1.35 GB]

Seth.Meyers.2018.1...
- [Size: 582.88 MB]

Seth.Meyers.2018.1...
- [Size: 586.13 MB]

Seth.Meyers.2018.1...
- [Size: 801.04 MB]

18+.What.Keeps.You...
- [Size: 1.10 GB]


Torrent Details For "Main Hoon Naa - (2004) - 720p WEB-RIP - x265 - AAC - [t4n7iR]"

Main Hoon Naa - (2004) - 720p WEB-RIP - x265 - AAC - [t4n7iR]

Download this torrent | Magnet Download
Health:
Seeds: 0
Leechers: 0
Completed:
Last Checked: 07-12-2018 03:53:13
External Torrent
Update Stats



Images Host

Poster


iMDB
Imdb Picture Title: Main Hoon Na
Year: 2004
Runtime: 179 minutes
Votes: 25142
Rating: 7.0/10
Language: Hindi
Country: India
All Genres: Action, Comedy, Drama, Romance
Plot Outline: An army major goes undercover as a college student. His mission is both professional and personal: to protect his general's daughter from a radical militant, and to find his estranged half-brother.
Tagline: this summer, maj. ramprasad sharma is going back to school
Director: Farah Khan
Writing By: Farah Khan,Abbas Tyrewala,Farah Khan,Rajesh Saathi,Abbas Tyrewala,
Produced By: Sanjiv Chawla,Ratan Jain,Gauri Khan,Shah Rukh Khan,Vishal Punjabi,Anil Sable,
Music: Ranjit Barot Anu Malik
Plot:

When India and Pakistan decide to end their hostilities, there is one army person in India who is unhappy, because of his son's death in the Indo-Pak war. He decides to launch terror attacks and bring an end to peace, and for this purpose he shoots and gravelly injures an Indian army officer. After the death of this officer, Raghavan then decides to do away with the army officer's daughter, Sanjana, who is studying in hostel. Raghavan and his men descend on the hostel and hold over 100 students hostage. There is only one student who can save them, and his name is Ram, he claims he is a student, but is here on a mission - a mission that when told will reveal his real identity and two plans which he must carry out simultaneously.

- Written by Sumitra (corrected by Iqbal)

The governments of India and Pakistan have launched, "Project Milaap", where both the governments will release the POVs from the previous wars. Raghavan, a deranged ex-army man-turned-militant does not want the peaceful operation to turn to reality and makes an attempt on Gen. Amarjeet Bakshi's life. While trying to rescue Gen. Bakshi, Brigadier Shekhar Sharma falls prey to a stray bullet. While on deathbed he confesses to his son Major Ramprasad Sharma that his wife and son had left him many years ago due to his infidelity. He tells Ram his last wish: his family be reunited under one roof, and dies. Meanwhile, Gen. Bakshi tells Ram that his teenage daughter Sanjana's life is in danger, and asks him to go undercover to Darjeeling and pose as a student in Sanjana's class . As the fate would have it, Ram learns that his younger brother Laxman "Lucky" is studying at the same college. So Maj. Ram starts off on his dual mission: personal and national.

- Written by Soumitra

Laxman Prasad Sharma lives with his mother, Madhu, in a small town in India. He studies in a local college and has a sweetheart in tom-boyish Sanjana Bakshi. The College gets a new student when Ram joins the college. Initially there is considerable friction between Ram and Lakhsman, which soon turns to close friendship. Lakhsman even lets out a room in his house to Ram for rent, and he also introduces him to his mother. Then all hell breaks lose in the college campus when a renegade former Indian army soldier, Raghavan Datta, holds about a 100 students hostage to stop the prisoner swap between India and Pakistan. Raghavan also exposes Ram for what he really is - a fact that Ram had managed to conceal from all the townspeople and the collegians, and an ulterior motive for entering the lives of Lakhsman and Madhu.

- Written by rAjOo ([email protected])

An army major goes undercover as a college student. His mission is both professional and personal: to protect his general's daughter from a radical militant, and to find his estranged half-brother.

- Written by L. Hamre
Cast:
Shah Rukh Khan as Maj. Ram Prasad Sharma
Sushmita Sen as Chandni Chopra
Sunil Shetty as Raghavan Datta
Zayed Khan as Laxman Prasad Sharma
Amrita Rao as Sanjana Bakshi
Kabir Bedi as Gen. Amarjeet Bakshi
Naseeruddin Shah as Brig. Shekhar Sharma
Satish Shah as Prof. Rasai
Boman Irani as Principal
Bindu as Miss Kaker


Watch-Free-HD     Download

Details
Name:Main Hoon Naa - (2004) - 720p WEB-RIP - x265 - AAC - [t4n7iR]
Description:




Quote:

General
Complete name               : Main Hoon Naa - (2004) - 720p WEB-RIP - x265 - AAC - [t4n7iR].mkv
Format                      : Matroska
Format version              : Version 4 / Version 2
File size                   : 1.55 GiB
Duration                    : 3 h 2 min
Overall bit rate            : 1 221 kb/s
Movie name                  : Main Hoon [email protected]
Encoded date                : UTC 2018-04-01 20:22:08
Cover                       : Yes
Attachments                 : cover

Video
ID                          : 1
Format                      : HEVC
Format/Info                 : High Efficiency Video Coding
Format profile              : [email protected]@Main
Codec ID                    : V_MPEGH/ISO/HEVC
Duration                    : 3 h 2 min
Bit rate                    : 1 025 kb/s
Width                       : 1 280 pixels
Height                      : 544 pixels
Display aspect ratio        : 2.35:1
Frame rate mode             : Constant
Frame rate                  : 24.000 FPS
Color space                 : YUV
Chroma subsampling          : 4:2:0
Bit depth                   : 8 bits
Bits/(Pixel*Frame)          : 0.061
Stream size                 : 1.30 GiB (84%)
Title                       : t4n7iR
Language                    : English
Default                     : Yes
Forced                      : No

Audio
ID                          : 2
Format                      : AAC
Format/Info                 : Advanced Audio Codec
Format profile              : LC
Codec ID                    : A_AAC-2
Duration                    : 3 h 2 min
Bit rate                    : 192 kb/s
Channel(s)                  : 2 channels
Channel positions           : Front: L R
Sampling rate               : 48.0 kHz
Frame rate                  : 46.875 FPS (1024 SPF)
Compression mode            : Lossy
Stream size                 : 253 MiB (16%)
Title                       : t4n7iR
Language                    : Hindi
Default                     : Yes
Forced                      : No


















Category:Movies > Bollywood
Lang:Hindi
Total Size:1.55 GB
Info Hash:7bc244f9ae942c5e1b88da163202c2c3458ed2a3
Added By:t4n7iR
Date Added:01-04-2018 21:54:58
Downloads:492

Ratings:Not Yet Rated (Log in to rate it)


Tracker:
http://jiotorrents.net/announce.php?pk=d7474d9c7c536b05a1d8a325c8236eb419131fb2


File List: 


Comments

<< Previous      Next >>
1 - 1

[Report] Posted: 23-05-2018 at 15:29:32
Beehove



Seed this torrent plz  :-(

1 - 1
<< Previous      Next >>


Top
Copyright 2018 DownloadHD -|- Page Generated In 4.169029 secs.
-|- RSS Feed -|- Feed Info
Misfits Serie TV Streaming Download | Dragon Ball Z: Plan to Eradicate Saiyans Episode 2 English Subbed | Call of Heroes