Login
Username:
Password:
[Signup]
[Recover Account]


Browse Torrents

Poll


You must be logged in to view polls



Latest Torrents
Jonathan.2018.HDRi...
- [Size: 1.37 GB]

Villain (2018) Ben...
- [Size: 558.96 MB]

Villain (2018) Ben...
- [Size: 1.49 GB]

Mirzapur (2018) Se...
- [Size: 3.39 GB]

The.Daily.Show.201...
- [Size: 311.67 MB]


Torrent Details For "Rab Ne Bana Di Jodi(2008) 720p DTS Digital Audio-HDprintMovies"

Rab Ne Bana Di Jodi(2008) 720p DTS Digital Audio-HDprintMovies

Download this torrent | Magnet Download
Health:
Seeds: 0
Leechers: 1
Completed:
Last Checked: 14-09-2018 05:43:18
External Torrent
Update Stats



Images Host

Poster


iMDB
Imdb Picture Title: Rab Ne Bana Di Jodi
Year: 2008
Runtime: 167 minutes
Votes: 36944
Rating: 7.2/10
Language: Hindi
Country: India
All Genres: Comedy, Drama, Music, Romance
Plot Outline: A breathtaking, goose flesh igniting, awe inspiring love journey of an ordinary man Suri and his 'total opposite' love Taani.
Tagline: This December, you will laugh... you will dance... you will fall in love.
Director: Aditya Chopra
Writing By: Aditya Chopra,Aditya Chopra,Aditya Chopra,
Produced By: Aditya Chopra,Yash Chopra,Shah Rukh Khan,Ignatius Rapose,Sanjay Shivalkar,Aashish Singh,
Music: Salim Merchant Salim-Sulaiman
Cast:
Shah Rukh Khan as Surinder 'Suri' Sahni / Raj Kapoor
Anushka Sharma Kohli as Taani Sahni
Vinay Pathak as Balwinder 'Bobby' Khosla
M.K. Raina as Taani's father
Rani Mukerji as
Manmeet Singh as Raju mechanic
Kajol as
Bipasha Basu as
Lara Dutta as
Preity Zinta as
Trailers:
Trailer


Watch-Free-HD     Download

Details
Name:Rab Ne Bana Di Jodi(2008) 720p DTS Digital Audio-HDprintMovies
Description:


General
Unique ID                                : 104094130031203960325562840222927078528 (0x4E4FCCDA5051CE4236B81938FDD2C480)
Complete name                            : Rab Ne Bana Di Jodi(2008) 720p DTS Digital Audio-(Suman142).mkv
Format                                   : Matroska
Format version                           : Version 1
File size                                : 3.99 GiB
Duration                                 : 2 h 37 min
Overall bit rate mode                    : Variable
Overall bit rate                         : 3 628 kb/s
Writing application                      : DivXMKVMux 10.5.17.0750
Writing library                          : libDivXMediaFormat 4.0.0.0578

Video
ID                                       : 1
Format                                   : AVC
Format/Info                              : Advanced Video Codec
Format profile                           : [email protected]
Format settings                          : CABAC / 3 Ref Frames
Format settings, CABAC                   : Yes
Format settings, RefFrames               : 3 frames
Codec ID                                 : V_MPEG4/ISO/AVC
Duration                                 : 2 h 37 min
Bit rate mode                            : Variable
Bit rate                                 : 3 046 kb/s
Maximum bit rate                         : 3 124 kb/s
Width                                    : 1 280 pixels
Height                                   : 720 pixels
Display aspect ratio                     : 16:9
Frame rate mode                          : Constant
Frame rate                               : 29.970 (30000/1001) FPS
Color space                              : YUV
Chroma subsampling                       : 4:2:0
Bit depth                                : 8 bits
Scan type                                : Progressive
Bits/(Pixel*Frame)                       : 0.110
Stream size                              : 3.35 GiB (84%)
Language                                 : English
Default                                  : Yes
Forced                                   : No

Audio
ID                                       : 2
Format                                   : DTS
Format/Info                              : Digital Theater Systems
Codec ID                                 : A_DTS
Duration                                 : 2 h 37 min
Bit rate mode                            : Constant
Bit rate                                 : 510 kb/s
Channel(s)                               : 2 channels
Channel positions                        : Front: L R
Sampling rate                            : 48.0 kHz
Frame rate                               : 46.875 FPS (1024 SPF)
Bit depth                                : 24 bits
Compression mode                         : Lossy
Stream size                              : 574 MiB (14%)
Language                                 : English
Default                                  : Yes
Forced                                   : No















Category:Movies > Bollywood
Lang:Hindi
Total Size:3.99 GB
Info Hash:044e97b226014f2cf020a67859404afdd2590f06
Added By:suman142
Date Added:29-03-2018 19:30:14
Downloads:380

Ratings:Not Yet Rated (Log in to rate it)


Tracker:
http://share.camoe.cn:8080/announce

This Torrent also has backup trackers
URLSeedersLeechersCompleted
http://share.camoe.cn:8080/announce000
http://t.nyaatracker.com:80/announce010
http://asnet.pw:2710/announce000
http://tracker.tfile.co:80/announce100
http://pt.lax.mx:80/announce000
http://tracker.bt-hash.com:443/announce000
http://grifon.info:80/announce000
http://retracker.spark-rostov.ru:80/announce000
http://tr.kxmp.cf:80/announce000
http://tracker.city9x.com:2710/announce000
http://tracker.tfile.me:80/announce100
http://retracker.telecom.by:80/announce000
http://tracker.electro-torrent.pl:80/announce010
http://open.kickasstracker.com:443/announce020
http://retracker.mgts.by:80/announce000
http://retracker.bashtel.ru:80/announce000
http://tracker.devil-torrents.pl:80/announce000
http://torrentsmd.eu:8080/announce000
http://ns349743.ip-91-121-106.eu:80/announce000
http://torrentsmd.me:8080/announce000
http://agusiq-torrents.pl:6969/announce000
http://fxtt.ru:80/announce000


File List: 


Comments

<< Previous      Next >>
1 - 1

[Report] Posted: 14-04-2018 at 11:24:29
wiki



:love  :love

1 - 1
<< Previous      Next >>


Top
Copyright 2018 DownloadHD -|- Page Generated In 3.348984 secs.
-|- RSS Feed -|- Feed Info