Login
Username:
Password:
[Signup]
[Recover Account]


Browse Torrents

Poll


You must be logged in to view polls



Latest Torrents
James.Corden.2018....
- [Size: 627.02 MB]

Stephen.Colbert.20...
- [Size: 649.06 MB]

The.Domestics.2018...
- [Size: 705.94 MB]

Tell.Me.A.Story.US...
- [Size: 243.05 MB]

Neelakasham Pachak...
- [Size: 1.48 GB]


Torrent Details For "Ram Jaane (1995) Hindi 720p x264 5.1 DTS Sound-HDprintMovies"

Ram Jaane (1995) Hindi 720p x264 5.1 DTS Sound-HDprintMovies

Download this torrent | Magnet Download
Health:
Seeds: 0
Leechers: 11
Completed: 65 
Last Checked: 10-04-2018 13:14:07
External Torrent
Update Stats



Images Host

Poster


iMDB
Imdb Picture Title: Ram Jaane
Year: 1995
Runtime: 122 minutes
Votes: 2917
Rating: 5.4/10
Language: Hindi
Country: India
All Genres: Action, Crime, Drama, Romance
Plot Outline: Ram Jaane is arrested by a security guard after stealing cargo from a train with his best friend. He is shortly released and becomes one of the biggest hustlers in the city. After a deadly ...
Director: Rajiv Mehra
Writing By: Vinay Shukla,Vinay Shukla,Vinay Shukla,
Produced By: Parvesh C. Mehra,
Music: Anu Malik Shyam-Surender
Plot:

Ram Jaane is arrested by a security guard after stealing cargo from a train with his best friend. He is shortly released and becomes one of the biggest hustlers in the city. After a deadly shootout, he is arrested by a corrupt police official and sent to jail once again. After a few years of serving in prison, he goes back to the streets and to his friend's place. There he decides to help him raise the local kids in the area so they won't be corrupted by the streets. He quickly falls in love with a childhood girlfriend Bela (Juhi Chawla), but also goes back to his old ways.

- Written by hEmRaJ ([email protected])

Abandoned at a very young age, an unnamed youth faces taunts about his name and religion. He asks a priest what his name is. The priest answers "Ram Jaane" (God knows), which the youth accepts as his name. He grows up to be a career thief and criminal, and ultimately a feared gangster. He is in love with his childhood sweetheart, Bela, and believes that she too loves him. When other gangsters decide to take-over the building in which Bela lives, Ram decides to oppose them, so as to impress Bela, and get her to marry him. Ram only ends up antagonizing the gangsters and their men, and finds out that Bela dislikes him, and wants to marry another young man by the name of Murli.

- Written by rAjOo ([email protected])
Cast:
Shah Rukh Khan as Ram Jaane
Juhi Chawla as Bela
Vivek Mushran as Murli
Pankaj Kapur as Pannu Technicolor
Puneet Issar as Inspector Chewte
Tinnu Anand as Sameer Sanwla
Deven Verma as Daddu Uncle
Gulshan Grover as Bhau
Amrit Pal as Mirchi
Arun Bali as Paowala Baba


Watch-Free-HD     Download

Details
Name:Ram Jaane (1995) Hindi 720p x264 5.1 DTS Sound-HDprintMovies
Description:


Complete name                            : Ram Jaane (1995) Hindi 720p x264 5.1 DTS Sound-(Suman142).mp4
Format                                   : MPEG-4
Format profile                           : Base Media / Version 2
Codec ID                                 : mp42 (mp42/mp41)
File size                                : 4.16 GiB
Duration                                 : 2 h 22 min
Overall bit rate mode                    : Variable
Overall bit rate                         : 4 191 kb/s
Encoded date                             : UTC 2018-03-29 15:00:04
Tagged date                              : UTC 2018-03-29 15:05:57
TIM                                      : 00:00:00:00
TSC                                      : 25
TSZ                                      : 1

Video
ID                                       : 1
Format                                   : AVC
Format/Info                              : Advanced Video Codec
Format profile                           : [email protected]
Format settings                          : CABAC / 4 Ref Frames
Format settings, CABAC                   : Yes
Format settings, RefFrames               : 4 frames
Codec ID                                 : avc1
Codec ID/Info                            : Advanced Video Coding
Duration                                 : 2 h 22 min
Bit rate                                 : 3 998 kb/s
Width                                    : 1 280 pixels
Height                                   : 852 pixels
Display aspect ratio                     : 16:9
Frame rate mode                          : Constant
Frame rate                               : 25.000 FPS
Standard                                 : PAL
Color space                              : YUV
Chroma subsampling                       : 4:2:0
Bit depth                                : 8 bits
Scan type                                : Progressive
Bits/(Pixel*Frame)                       : 0.147
Stream size                              : 3.97 GiB (95%)
Language                                 : English
Encoded date                             : UTC 2018-03-29 15:00:05
Tagged date                              : UTC 2018-03-29 15:00:05
Color range                              : Limited
Color primaries                          : BT.709
Transfer characteristics                 : BT.709
Matrix coefficients                      : BT.709

Audio
ID                                       : 2
Format                                   : AAC
Format/Info                              : Advanced Audio Codec
Format profile                           : LC
Codec ID                                 : mp4a-40-2
Duration                                 : 2 h 22 min
Source duration                          : 2 h 22 min
Bit rate mode                            : Variable
Bit rate                                 : 192 kb/s
Maximum bit rate                         : 302 kb/s
Channel(s)                               : 6 channels
Channel positions                        : Front: L C R, Side: L R, LFE
Sampling rate                            : 48.0 kHz
Frame rate                               : 46.875 FPS (1024 SPF)
Compression mode                         : Lossy
Stream size                              : 192 MiB (5%)
Source stream size                       : 192 MiB (5%)
Language                                 : English
Encoded date                             : UTC 2018-03-29 15:00:06
Tagged date                              : UTC 2018-03-29 15:00:06













Category:Movies > Bollywood
Lang:Hindi
Total Size:4.16 GB
Info Hash:fd8ae4696e49863a7211a0ef4fccd12a9ea2d681
Added By:suman142
Date Added:29-03-2018 18:41:33
Downloads:373

Ratings:Not Yet Rated (Log in to rate it)


Tracker:
http://share.camoe.cn:8080/announce

This Torrent also has backup trackers
URLSeedersLeechersCompleted
http://share.camoe.cn:8080/announce000
http://t.nyaatracker.com:80/announce050
http://asnet.pw:2710/announce000
http://tracker.tfile.co:80/announce000
http://pt.lax.mx:80/announce000
http://tracker.bt-hash.com:443/announce000
http://grifon.info:80/announce000
http://retracker.spark-rostov.ru:80/announce000
http://tr.kxmp.cf:80/announce000
http://tracker.city9x.com:2710/announce003
http://tracker.tfile.me:80/announce000
http://retracker.telecom.by:80/announce000
http://tracker.electro-torrent.pl:80/announce001
http://open.kickasstracker.com:443/announce350
http://retracker.mgts.by:80/announce003
http://retracker.bashtel.ru:80/announce000
http://tracker.devil-torrents.pl:80/announce000
http://torrentsmd.eu:8080/announce010
http://ns349743.ip-91-121-106.eu:80/announce000
http://torrentsmd.me:8080/announce010
http://agusiq-torrents.pl:6969/announce030
http://fxtt.ru:80/announce000


File List: 


Comments

<< Previous      Next >>
1 - 1

[Report] Posted: 10-04-2018 at 13:12:29
wiki



:)
Gud SHARE

1 - 1
<< Previous      Next >>


Top
Copyright 2018 DownloadHD -|- Page Generated In 3.488515 secs.
-|- RSS Feed -|- Feed Info
Belle série de 5 gravures du XIXe, aquarellées à la main : Annedouche, Werner, | Jurassic World Evolution: Deluxe Edition [RePack] [RUS + ENG + 9 / RUS + ENG] (2018) (1.4.3.37142 + 2 DLC) | Thám Tử Lừng Danh Conan chap 1003