Login
Username:
Password:
[Signup]
[Recover Account]


Browse Torrents

Poll


You must be logged in to view polls



Latest Torrents
Blood.UK.S01E01E02...
- [Size: 387.18 MB]

Hero No Zero 3 (Ma...
- [Size: 638.09 MB]

Chalbaaz (2018) Sa...
- [Size: 699.80 MB]

Bodhon [2017] Beng...
- [Size: 583.86 MB]

Munni Metric Pass ...
- [Size: 591.77 MB]


Torrent Details For "Masti [Uncensored] - (2004) - 720p Web-Rip - x265 - AAC - [t4n7iR]"

Masti [Uncensored] - (2004) - 720p Web-Rip - x265 - AAC - [t4n7iR]

Download this torrent | Magnet Download
Health:
Seeds: 0
Leechers: 3
Completed:
Last Checked: 24-05-2018 07:08:10
External Torrent
Update Stats



Images Host

Poster


iMDB
Imdb Picture Title: Masti
Year: 2004
Runtime: 166 minutes
Votes: 4878
Rating: 6.2/10
Language: Hindi
Country: India
All Genres: Comedy, Crime, Mystery, Thriller
Plot Outline: Bored of their wives, best friends, Meet, Prem and Amar, reunite after three years and decide to have an affair - but instead become the prime suspects in a murder investigation.
Director: Indra Kumar
Writing By: Milap Zaveri,Tushar Hiranandani,Milap Zaveri,
Produced By: Indra Kumar,Ashok Thakeria,
Music: Anand Raj Anand Sanjay Wandrekar
Cast:
Aftab Shivdasani as Prem
Vivek Oberoi as Meet
Riteish Deshmukh as Rohit
Amrita Rao as Aanchal
Tara Sharma as Geeta
Genelia D'Souza as Bindiya
Ajay Devgn as Inspector Sikander
Lara Dutta as Monica
Satish Shah as Dr.Kapadia
Archana Puran Singh as Bindya's mom


Watch-Free-HD     Download

Details
Name:Masti [Uncensored] - (2004) - 720p Web-Rip - x265 - AAC - [t4n7iR]
Description:




Quote:

General
Complete name               : Masti [Uncensored] - (2004) - 720p Web-Rip - x265 - AAC - [t4n7iR].mkv
Format                      : Matroska
Format version              : Version 4 / Version 2
File size                   : 1.34 GiB
Duration                    : 2 h 45 min
Overall bit rate            : 1 153 kb/s
Movie name                  : Masti [Uncensored]@t4n7iR
Encoded date                : UTC 2018-03-29 13:48:28
Writing application         : mkvmerge v21.0.0 ('Tardigrades Will Inherit The Earth') 64-bit
Writing library             : libebml v1.3.5 + libmatroska v1.4.8
Cover                       : Yes
Attachments                 : cover

Video
ID                          : 1
Format                      : HEVC
Format/Info                 : High Efficiency Video Coding
Format profile              : [email protected]@Main
Codec ID                    : V_MPEGH/ISO/HEVC
Duration                    : 2 h 45 min
Bit rate                    : 1 025 kb/s
Width                       : 1 280 pixels
Height                      : 544 pixels
Display aspect ratio        : 2.35:1
Frame rate mode             : Constant
Frame rate                  : 25.000 FPS
Color space                 : YUV
Chroma subsampling          : 4:2:0
Bit depth                   : 8 bits
Bits/(Pixel*Frame)          : 0.059
Stream size                 : 1.19 GiB (89%)
Title                       : t4n7iR
Language                    : English
Default                     : Yes
Forced                      : No

Audio
ID                          : 2
Format                      : AAC
Format/Info                 : Advanced Audio Codec
Format profile              : LC
Codec ID                    : A_AAC-2
Duration                    : 2 h 45 min
Bit rate                    : 126 kb/s
Channel(s)                  : 2 channels
Channel positions           : Front: L R
Sampling rate               : 44.1 kHz
Frame rate                  : 43.066 FPS (1024 SPF)
Compression mode            : Lossy
Stream size                 : 149 MiB (11%)
Title                       : t4n7iR
Language                    : Hindi
Default                     : Yes
Forced                      : No





















Category:Movies > Bollywood
Lang:Hindi
Total Size:1.34 GB
Info Hash:159e4ad7da8ff3dafa8549d6487867a065a6bcb3
Added By:t4n7iR
Date Added:29-03-2018 16:17:22
Downloads:568

Ratings:Not Yet Rated (Log in to rate it)


Tracker:
http://jiotorrents.net/announce.php?pk=d7474d9c7c536b05a1d8a325c8236eb419131fb2


File List: 


Comments

<< Previous      Next >>
1 - 1

[Report] Posted: 23-07-2018 at 19:21:46
bladez



seed please

1 - 1
<< Previous      Next >>


Top
Copyright 2018 DownloadHD -|- Page Generated In 3.819787 secs.
-|- RSS Feed -|- Feed Info
Sitzkeilkissen Keilkissen Sitz Auto Kissen TIGA ORTHO STRONG mit Bezug nach Wahl | Read Essay | Vintage Christmas Clown Ornament West Germany