Login
Username:
Password:
[Signup]
[Recover Account]


Browse Torrents

Poll


You must be logged in to view polls



Latest Torrents
James.Corden.2018....
- [Size: 627.02 MB]

Stephen.Colbert.20...
- [Size: 649.06 MB]

The.Domestics.2018...
- [Size: 705.94 MB]

Tell.Me.A.Story.US...
- [Size: 243.05 MB]

Neelakasham Pachak...
- [Size: 1.48 GB]


Torrent Details For "Luv Ka the End (2011) DVDRip 720p x264 AAC { TaRa }.mkv"

Luv Ka the End (2011) DVDRip 720p x264 AAC { TaRa }.mkv

Download this torrent | Magnet Download
Health:
Seeds: 0
Leechers: 4
Completed:
Last Checked: 22-05-2017 00:43:52
External Torrent
Update Stats



Images Host

Poster


Watch-Free-HD     Download

Details
Name:Luv Ka the End (2011) DVDRip 720p x264 AAC { TaRa }.mkv
Description:

Quote:

 Luv Ka the End (2011) DVDRip 720p x264 AAC { TaRa }.mkv


===================================================================
General
Complete name               : Luv Ka the End (2011) DVDRip 720p x264 AAC { TaRa }.mkv
Format                      : Matroska
Format version              : Version 4 / Version 2
File size                   : 793 MiB
Duration                    : 1 h 47 min
Overall bit rate            : 1 035 kb/s
===================================================================
Video
ID                          : 1
Format                      : AVC
Format/Info                 : Advanced Video Codec
Format profile ¬† ¬† ¬† ¬† ¬† ¬† ¬†: [email protected]
Format settings, CABAC      : Yes
Format settings, ReFrames   : 4 frames
Codec ID                    : V_MPEG4/ISO/AVC
Duration                    : 1 h 47 min
Bit rate                    : 937 kb/s
Width                       : 1 280 pixels
Height                      : 544 pixels
Display aspect ratio        : 2.35:1
Frame rate mode             : Constant
Frame rate                  : 23.976 (24000/1001) FPS
Color space                 : YUV
Chroma subsampling          : 4:2:0
Bit depth                   : 8 bits
Scan type                   : Progressive
Bits/(Pixel*Frame)          : 0.056
Stream size                 : 718 MiB (90%)
Title                       : ....::::: TaRa :::::.....
Language                    : Hindi
Default                     : Yes
Forced                      : No
===================================================================
Audio
ID                          : 2
Format                      : AAC
Format/Info                 : Advanced Audio Codec
Format profile              : LC
Codec ID                    : A_AAC
Duration                    : 1 h 47 min
Bit rate                    : 96.0 kb/s
Channel(s)                  : 2 channels
Channel positions           : Front: L R
Sampling rate               : 48.0 kHz
Frame rate                  : 46.875 FPS (1024 spf)
Compression mode            : Lossy
Delay relative to video     : 9 ms
Stream size                 : 73.5 MiB (9%)
Title                       : ....::::: TaRa :::::.....
Language                    : Hindi
Default                     : Yes
Forced                      : No
===================================================================
Text
ID                          : 3
Format                      : UTF-8
Codec ID                    : S_TEXT/UTF8
Codec ID/Info               : UTF-8 Plain Text
Duration                    : 1 h 44 min
Bit rate                    : 64 b/s
Count of elements           : 2017
Stream size                 : 49.5 KiB (0%)
Default                     : Yes
Forced                      : No
===================================================================
















Category:Movies > Bollywood
Lang:Hindi
Total Size:793.07 MB
Info Hash:b3c18a7bfbeeae42d65f63a1c7715f4ac13dc3c9
Added By:SkTaRa
Date Added:07-04-2017 12:42:15
Downloads:240

Ratings:Not Yet Rated (Log in to rate it)


Tracker:
udp://tracker.openbittorrent.com:80/announce

This Torrent also has backup trackers
URLSeedersLeechersCompleted
http://www.skyts.net:6969/announce000
http://www.opentrackr.org/announce000
http://mgtracker.org:2710/announce000
http://5.79.83.193:2710/announce000
http://109.121.134.121:1337/announce000


File List: 


Comments

No comments still posted

Top
Copyright 2018 DownloadHD -|- Page Generated In 2.205380 secs.
-|- RSS Feed -|- Feed Info
comprehensive midi test midifile | Watch Movie | Loveless